Login
Username:
Password:
[Signup]
[Recover Account]


Browse Torrents

Poll


You must be logged in to view polls



Latest Torrents
Nightflyers.S01E10...
- [Size: 744.79 MB]

Nightflyers.S01E10...
- [Size: 255.73 MB]

Nightflyers.S01E10...
- [Size: 250.16 MB]

Legacies.S01E07.72...
- [Size: 130.84 MB]

Murphy.Brown.S11E1...
- [Size: 148.61 MB]


Torrent Details For "Love.Story.2050.2008.DVDRip.XviD-Filmiwar"

Love.Story.2050.2008.DVDRip.XviD-Filmiwar

Download this torrent | Magnet Download
Health:
Seeds: 0
Leechers: 0
Completed:
Last Checked: 06-12-2018 07:15:24
External Torrent
Update Stats



Images Host

Poster


iMDB
Imdb Picture Title: Love Story 2050
Year: 2008
Runtime: 180 minutes
Votes: 1884
Rating: 2.6/10
Language: Hindi
Country: Australia, India
All Genres: Action, Adventure, Drama, Musical, Romance, Sci-Fi
Plot Outline: With the help of his uncle, a man travels to the future to try and bring his girlfriend back to life.
Director: Harry Baweja
Writing By: Harry Baweja,Bhavani Iyer,Mayur Puri,Karan Razdan,Prem Soni,Suparn Verma,
Produced By: Pammi Baweja,Mahesh Ramanathan,Prashant Shah,Sandeep Shandilya,Anupam Sharma,
Music: Anu Malik Amar Mohile Monty Sharma
Plot:

Tells the story about Karan, a young, spirited, sporty boy who lives life off the rules and Sana, a young petite, shy girl who lives life by the rules. This develops into a magical love story. Karan's uncle, Dr. Yatinder Khanna's much developed time machine finally works. Sana expresses her wish to travel ahead in time to Mumbai in the future. We land in Mumbai 2050 in the time machine... along with Uncle Yatinder, Rahul and Thea (Sana's younger brother and sister). Flying cars, 200 storey buildings, robots and sky rails have changed the very face of Mumbai. Through a series of twists and turns, the time traveler Karan finds himself separating from his love. QT, a friendly femme robot and Boo, a small robotic teddy bear play their distinct roles in bringing their love story together but soon find themselves under the threat of the demi-god of the future, Dr. Hoshi. Will Karan be able to overcome the threat of Dr. Hoshi and win his love and travel back in time?

- Written by gavin ([email protected])

After his girlfriend, Sana Bedi, accidentally passes away, Sydney-based wealthy Karan Malhotra enlists the assistance of his scientist uncle, Yatin Khanna, and together they decide to time-travel to the year 2050 in Mumbai to try and bring Sana back to the year 2008.

- Written by rAjOo ([email protected])

With the help of his uncle, a man travels to the future to try and bring his girlfriend back to life.

- Written by rAjOo ([email protected])
Cast:
Harman Baweja as Karan Malhotra
Priyanka Chopra as Sana Bedi / Zeisha
Boman Irani as Professor Yatin 'Uncle Ya' Khanna
Archana Puran Singh as Mrs. Bedi
Amman Batala as
Matt Connelly as Tough Guy
Matt Dean as Tough Guy
Kurush Deboo as Hacker Jimmy Dhinchuck
Leah Marie East as Pedestrian
Candida Fernadies as


Watch-Free-HD     Download

Details
Name:Love.Story.2050.2008.DVDRip.XviD-Filmiwar
Description:



-:General:-

Format                                   : AVI
Format/Info                              : Audio Video Interleave
File size                                : 698 MiB
Duration                                 : 2h 51mn
Overall bit rate                         : 569 Kbps
Writing application                      : VirtualDubMod 1.5.10.2 (build 2540/release)
Writing library                          : VirtualDubMod build 2540/release

-:Video:-

ID                                       : 0
Format                                   : MPEG-4 Visual
Format profile                           : [email protected]
Format settings, BVOP                    : No
Format settings, QPel                    : No
Format settings, GMC                     : No warppoints
Format settings, Matrix                  : Default (H.263)
Codec ID                                 : XVID
Codec ID/Hint                            : XviD
Duration                                 : 2h 51mn
Bit rate                                 : 464 Kbps
Width                                    : 640 pixels
Height                                   : 272 pixels
Display aspect ratio                     : 2.35:1
Frame rate                               : 23.976 fps
Color space                              : YUV
Chroma subsampling                       : 4:2:0
Bit depth                                : 8 bits
Scan type                                : Progressive
Compression mode                         : Lossy
Bits/(Pixel*Frame)                       : 0.111
Stream size                              : 569 MiB (81%)
Writing library                          : XviD 1.2.0.dev45 (UTC 2006-07-10)

-:Audio:-

ID                                       : 1
Format                                   : MPEG Audio
Format version                           : Version 1
Format profile                           : Layer 3
Mode                                     : Joint stereo
Mode extension                           : MS Stereo
Codec ID                                 : 55
Codec ID/Hint                            : MP3
Duration                                 : 2h 51mn
Bit rate mode                            : Constant
Bit rate                                 : 96.0 Kbps
Channel count                            : 2 channels
Sampling rate                            : 48.0 KHz
Compression mode                         : Lossy
Stream size                              : 118 MiB (17%)


-:ScreenShots:-












1CnbmYmViVdxgLnhqJzp2ENzsWxnx4iUyT

-:Visit Us:-

 http://filmiwar.com/

!!!...Plz Keep Seeding After Download...!!!


Category:Movies > Bollywood
Lang:Hindi
Total Size:697.63 MB
Info Hash:33c7eb51f39e09c8dd244ed37f004ea05ceab9ff
Added By:filmiwar
Date Added:28-12-2017 06:33:52
Downloads:401

Ratings:Not Yet Rated (Log in to rate it)


Tracker:
http://ipv4.tracker.harry.lu/announce

This Torrent also has backup trackers
URLSeedersLeechersCompleted
http://ipv4.tracker.harry.lu/announce060
http://ipv4.tracker.harry.lu:80/announce060
http://tracker.electro-torrent.pl/announce050
http://tracker.electro-torrent.pl:80/announce050
http://tracker.opentrackr.org:1337/announce010
http://retracker.mgts.by:80/announce\000
http://pt.lax.mx:80/announce000
http://p4p.arenabg.com:1337/announce030
http://open.kickasstracker.com/announce010
http://open.kickasstracker.com:443/announce010
http://tracker.torrentyorg.pl:80/announce060
http://tracker.electro-torrent.pl:80/announce050
http://82.209.230.66/announce040
http://163.172.180.68/announce060
http://107.174.238.55:80/announce000
http://45.33.11.224/announce000
http://195.88.220.21:80/announce000


File List: 


Comments

No comments still posted

Top
Copyright 2018 DownloadHD -|- Page Generated In 1.705163 secs.
-|- RSS Feed -|- Feed Info
Anh Đếch Cần Gì Nhiều N... | Garena Free Fire APK | IMDb: 6 HD A Yeti Adventure