Login
Username:
Password:
[Signup]
[Recover Account]


Browse Torrents

Poll


You must be logged in to view polls



Latest Torrents
Blood.UK.S01E01E02...
- [Size: 387.18 MB]

Hero No Zero 3 (Ma...
- [Size: 638.09 MB]

Chalbaaz (2018) Sa...
- [Size: 699.80 MB]

Bodhon [2017] Beng...
- [Size: 583.86 MB]

Munni Metric Pass ...
- [Size: 591.77 MB]


Torrent Details For "Hera Pheri (1976) Hindi 1080p HDRip x264 AAC.-.Link2download"

Hera Pheri (1976) Hindi 1080p HDRip x264 AAC.-.Link2download

Download this torrent | Magnet Download
Health:
Seeds: 0
Leechers: 34
Completed:
Last Checked: 19-07-2018 22:22:34
External Torrent
Update Stats



Images Host

Poster


iMDB
Imdb Picture Title: Hera Pheri
Year: 1976
Runtime: 164 minutes
Votes: 799
Rating: 6.9/10
Language: Hindi
Country: India
All Genres: Action, Comedy, Crime, Drama
Plot Outline: Popular Indian leading man Amitabh Bachchan stars in HERA PHERI, a campy Bollywood musical melodrama about faded friendships and family secrets. Best friends Vijay (Bachchan) and Ajay (...
Director: Prakash Mehra
Writing By: Anjaan,Satish Bhatnagar,Indivar,Vijay Kaul,
Produced By: Satyendra Pal,
Music: Anandji Veerji Shah Kalyanji Veerji Shah
Cast:
Saira Banu as Kiran Singh
Vinod Khanna as Ajay
Amitabh Bachchan as Vijay
Sulakshana Pandit as Asha Khanna
Shreeram Lagoo as Police Commissioner Khanna
Pinchoo Kapoor as P.K. / Ghanshyamdas
P. Jairaj as Dinanath
Yunus Parvez as Dhaniram
Mac Mohan as Mac
Mohan Sherry as Sherry


Watch-Free-HD     Download

Details
Name:Hera Pheri (1976) Hindi 1080p HDRip x264 AAC.-.Link2download
Description:



Format                                   : Matroska
Format version                           : Version 4 / Version 2
File size                                : 3.53 GiB
Duration                                 : 2 h 37 min
Overall bit rate                         : 3 209 kb/s
Encoded date                             : UTC 2017-12-23 17:09:01
Writing application                      : mkvmerge v7.0.0 ('Where We Going') 64bit built on Jun  9 2014 15:16:27
Writing library                          : libebml v1.3.0 + libmatroska v1.4.1

Video
ID                                       : 1
Format                                   : AVC
Format/Info                              : Advanced Video Codec
Format profile                           : [email protected]
Format settings                          : CABAC / 4 Ref Frames
Format settings, CABAC                   : Yes
Format settings, RefFrames               : 4 frames
Codec ID                                 : V_MPEG4/ISO/AVC
Duration                                 : 2 h 37 min
Bit rate                                 : 3 082 kb/s
Width                                    : 1 920 pixels
Height                                   : 1 080 pixels
Display aspect ratio                     : 16:9
Frame rate mode                          : Constant
Frame rate                               : 23.976 (24000/1001) FPS
Color space                              : YUV
Chroma subsampling                       : 4:2:0
Bit depth                                : 8 bits
Scan type                                : Progressive
Bits/(Pixel*Frame)                       : 0.062
Stream size                              : 3.39 GiB (96%)
Writing library                          : x264 core 142 r2479 dd79a61
Default                                  : Yes
Forced                                   : No
Color range                              : Limited
Color primaries                          : BT.709
Transfer characteristics                 : BT.709
Matrix coefficients                      : BT.709

Audio
ID                                       : 2
Format                                   : AAC
Format/Info                              : Advanced Audio Codec
Format profile                           : LC
Codec ID                                 : A_AAC-2
Duration                                 : 2 h 37 min
Bit rate                                 : 126 kb/s
Channel(s)                               : 2 channels
Channel positions                        : Front: L R
Sampling rate                            : 44.1 kHz
Frame rate                               : 43.066 FPS (1024 SPF)
Compression mode                         : Lossy
Delay relative to video                  : -83 ms
Stream size                              : 141 MiB (4%)
Default                                  : Yes
Forced                                   : No





                   





Category:Movies > Bollywood
Lang:Hindi
Total Size:3.55 GB
Info Hash:f2dd322ae4f3d2245dce3c8f66660f2d38bd03ee
Added By:link2download
Date Added:24-12-2017 21:02:45
Downloads:525

Ratings:Not Yet Rated (Log in to rate it)


Tracker:
udp://tracker.openbittorrent.com:80/announce

This Torrent also has backup trackers
URLSeedersLeechersCompleted
http://ipv4.tracker.harry.lu/announce142216
http://ipv4.tracker.harry.lu:80/announce142216
http://opentracker-milanesi.rhcloud.com/announce000
http://t.nyaatracker.com/announce020
http://tracker.devil-torrents.pl:80/announce000
http://tracker.devil-torrents.pl/announce000
http://open.kickasstracker.com/announce000
http://opentracker-milanesi.rhcloud.com:80/announce000
http://open.kickasstracker.com:443/announce000
http://opentracker-milanesi.rhcloud.com:443/announce000
http://t.nyaatracker.com:80/announce020


File List: 


Comments

<< Previous      Next >>
1 - 4

[Report] Posted: 24-12-2017 at 21:05:26
DownloadHD
Team DownloadHD


Excellent work buddy ! Keep it up. :love

[Report] Posted: 24-12-2017 at 21:06:13
link2download



thanks

[Report] Posted: 25-12-2017 at 13:14:56
wiki



SUprbbb Job Thanks FOR THE SHARe :love  :love

[Report] Posted: 05-01-2018 at 14:05:29
shm90



:love  :love  :love

1 - 4
<< Previous      Next >>


Top
Copyright 2018 DownloadHD -|- Page Generated In 1.817068 secs.
-|- RSS Feed -|- Feed Info
Multimedia | Thám Tử Lừng Danh Conan chap 383 | Cardi B Be Careful Old Vs New R B Mashup Desmond Dennis Nathan Davis Jr mp3 song