Login
Username:
Password:
[Signup]
[Recover Account]


Browse Torrents

Poll


You must be logged in to view polls



Latest Torrents
A Turtle's Tale 2 ...
- [Size: 1.26 GB]

Ekon.Eken-[2018]-[...
- [Size: 1.99 GB]

Madras Cafe (2013)...
- [Size: 1.69 GB]

Crazy Frog - The B...
- [Size: 111.67 MB]

Beyond.The.Sky.201...
- [Size: 16.97 GB]


Torrent Details For "Porus - Ep 4 - 1080p Untouched WebHD x264 AAC [TMB]"

Porus - Ep 4 - 1080p Untouched WebHD x264 AAC [TMB]

Download this torrent | Magnet Download
Health:
Seeds: 0
Leechers: 1
Completed:
Last Checked: 24-08-2018 00:55:22
External Torrent
Update Stats



Images Host

Poster


iMDB
Imdb Picture Title: Porus
Year: 2017
Runtime: 22 minutes
Votes: 53
Rating: 9.1/10
Language: Hindi
Country: India
All Genres: History
Plot Outline: Porus is the story of Indian warrior Porus and his life especially the Battle of the Hydaspes with the Great Alexander.
Tagline: Sar Katenge Sar Jhukenge Par Sikander Ke Irade Nahi Rukenge
Director: Kamal Monga
Siddharth Kumar Tewary
Writing By: Siddharth Kumar Tewary,
Produced By: Gayatri Gill Tewary,Rahul Kumar Tewary,Siddharth Kumar Tewary,
Music: Sangeet Haldipur Siddharth Haldipur Suryaraj Kamal Lenin Nandi Raju Singh
Cast:
Rati Pandey as Queen Anusuiya 9 episodes, 2017
Aditya Redij as King Bamni 9 episodes, 2017
Praneet Bhatt as Darius III 9 episodes, 2017
Aman Dhaliwal as Amatya Shiv Dutt 9 episodes, 2017
Gurpreet Singh as King Ambhi 8 episodes, 2017
Hrishikesh Pandey as Senapati Ripudaman 8 episodes, 2017
Sunny Ghansani as King Philip II 7 episodes, 2017
Sameksha as Queen Olympias 7 episodes, 2017
Laksh Lalwani as Porus unknown episodes
Rohit Purohit as Alexander unknown episodes


Watch-Free-HD     Download

Details
Name:Porus - Ep 4 - 1080p Untouched WebHD x264 AAC [TMB]
Description:




 



 

 

 

 

 

 

 

 

 

 

 

Info -
Porus ruled the Kingdom of Paurava in Ancient India which is situated between Chenab and Jhelum River in Punjab.  Alexander sent a messenger from Taxila to King Porus asking his submission but Porus refused and replied that his army is ready to combat.

Porus got angry with the intentions of a foreign invader and prepared his army ready for war.  His army was large and well capable to defeat an invader but the monsoon had an adverse impact on his chance to win the battle.  The chariots of his army got stuck in mud due to rain and the bowmen were not able to aim correctly. Despite this, Porus fought very bravely and got injured during the battle. His army was defeated and he was forced to surrender.

Alexander was impressed by the bravery of Porus. He asked Porus what treatment he wishes. Porus replied to treat him as a king so Alexander treated him as a friend and returned his kingdom back along with many other villages.

Episode date: 30 November 2017

Network: Sony TV

Genre: Historical

Language: Hindi



General
Complete name               : Porus - Ep 4 - 1080p Untouched WebHD x264 AAC [TMB].MP4
Format                      : MPEG-4
Format profile              : Base Media
Codec ID                    : isom (isom/iso2/avc1/mp41)
File size                   : 335 MiB
Duration                    : 31 min 39 s
Overall bit rate mode       : Variable
Overall bit rate            : 1 479 kb/s

Video
Format                      : AVC
Format/Info                 : Advanced Video Codec
Format profile              : [email protected]
Format settings             : CABAC / 3 Ref Frames
Format settings, CABAC      : Yes
Format settings, ReFrames   : 3 frames
Codec ID                    : avc1
Codec ID/Info               : Advanced Video Coding
Duration                    : 31 min 39 s
Bit rate                    : 1 350 kb/s
Width                       : 1 920 pixels
Height                      : 1 080 pixels
Display aspect ratio        : 16:9
Frame rate mode             : Constant
Frame rate                  : 25.000 FPS
Color space                 : YUV
Chroma subsampling          : 4:2:0
Bit depth                   : 8 bits
Scan type                   : Progressive
Bits/(Pixel*Frame)          : 0.026
Stream size                 : 306 MiB (91%)

Audio
Format                      : AAC
Format/Info                 : Advanced Audio Codec
Format profile              : LC
Codec ID                    : mp4a-40-2
Duration                    : 31 min 39 s
Bit rate mode               : Variable
Bit rate                    : 126 kb/s
Channel(s)                  : 2 channels
Channel positions           : Front: L R
Sampling rate               : 44.1 kHz
Frame rate                  : 43.066 FPS (1024 SPF)
Compression mode            : Lossy
Stream size                 : 28.4 MiB (8%)


Uploaded & Shared by TeamTMB

Seeding 24x7... Extreme Seeding...



Category:TV > Indian
Lang:Hindi
Total Size:334.84 MB
Info Hash:b470fb71e30eb20a6d829ca7e8e88c7cd5eab577
Added By:TeamTMB
Date Added:24-12-2017 14:04:52
Downloads:156

Ratings:Not Yet Rated (Log in to rate it)


Tracker:
udp://tracker.coppersurfer.tk:6969/announce


File List: 


Comments

No comments still posted

Top
Copyright 2018 DownloadHD -|- Page Generated In 1.517798 secs.
-|- RSS Feed -|- Feed Info
JetBrains PyCharm Professional 2018.2.5 | Bmw Mini Mf16 Half Cut And Parts Commercial Order Container Fob Japan Cooper 4U! | Costura y mercería