Login
Username:
Password:
[Signup]
[Recover Account]


Browse Torrents

Poll


You must be logged in to view polls



Latest Torrents
James.Corden.2018....
- [Size: 629.37 MB]

James.Corden.2018....
- [Size: 627.24 MB]

James.Corden.2018....
- [Size: 883.03 MB]

Leah.Remini.Scient...
- [Size: 608.87 MB]

Leah.Remini.Scient...
- [Size: 832.73 MB]


Torrent Details For "Terminator 2 (1991) 3D SBS 1080p BluRay x264 Dual Audio [Hindi 5.1 – English 5.1].-.link2down..."

Terminator 2 (1991) 3D SBS 1080p BluRay x264 Dual Audio [Hindi 5.1 – English 5.1].-.link2down...

Download this torrent | Magnet Download
Health:
Seeds: 1
Leechers: 21
Completed: 43 
Last Checked: 07-12-2018 22:32:56
External Torrent
Update Stats



Images Host

Poster


iMDB
Imdb Picture Original Title: Terminator 2: Judgment Day
Title: Terminator 2
Year: 1991
Runtime: 137 minutes
Votes: 820728
Rating: 8.5/10
Language: English, Spanish
Country: USA, France
All Genres: Action, Sci-Fi, Thriller
Plot Outline: A cyborg, identical to the one who failed to kill Sarah Connor, must now protect her ten year old son, John Connor, from a more advanced cyborg.
Tagline: It's nothing personal.
Director: James Cameron
Writing By: James Cameron,William Wisher,
Produced By: Stephanie Austin,James Cameron,Gale Anne Hurd,Mario Kassar,B.J. Rack,
Music: Brad Fiedel
Cast:
Arnold Schwarzenegger as The Terminator
Linda Hamilton as Sarah Connor
Edward Furlong as John Connor
Robert Patrick as T-1000
Earl Boen as Dr. Silberman
Joe Morton as Miles Dyson
S. Epatha Merkerson as Tarissa Dyson
Castulo Guerra as Enrique Salceda
Danny Cooksey as Tim
Jenette Goldstein as Janelle Voight
Trailers:
Re-release Trailer


Watch-Free-HD     Download

Details
Name:Terminator 2 (1991) 3D SBS 1080p BluRay x264 Dual Audio [Hindi 5.1 – English 5.1].-.link2down...
Description:



Format                      : Matroska
Format version              : Version 4 / Version 2
File size                   : 3.63 GiB
Duration                    : 2 h 17 min
Overall bit rate            : 3 778 kb/s
Encoded date                : UTC 2017-12-19 09:06:09
Writing application         : mkvmerge v7.0.0 ('Where We Going') 64bit built on Jun  9 2014 15:16:27
Writing library             : libebml v1.3.0 + libmatroska v1.4.1

Video
ID                          : 1
Format                      : AVC
Format/Info                 : Advanced Video Codec
Format profile              : [email protected]
Format settings, CABAC      : Yes
Format settings, ReFrames   : 4 frames
Codec ID                    : V_MPEG4/ISO/AVC
Duration                    : 2 h 17 min
Bit rate                    : 3 306 kb/s
Width                       : 1 920 pixels
Height                      : 806 pixels
Display aspect ratio        : 2.40:1
Frame rate mode             : Constant
Frame rate                  : 23.976 (24000/1001) FPS
Color space                 : YUV
Chroma subsampling          : 4:2:0
Bit depth                   : 8 bits
Scan type                   : Progressive
Bits/(Pixel*Frame)          : 0.089
Stream size                 : 3.17 GiB (87%)
Writing library             : x264 core 142 r2479 dd79a61
Default                     : Yes
Forced                      : No
Color range                 : Limited
Color primaries             : BT.709
Transfer characteristics    : BT.709
Matrix coefficients         : BT.709

Audio #1
ID                          : 2
Format                      : AAC
Format/Info                 : Advanced Audio Codec
Format profile              : LC
Codec ID                    : A_AAC
Duration                    : 2 h 16 min
Bit rate                    : 279 kb/s
Channel(s)                  : 6 channels
Channel positions           : Front: L C R, Side: L R, LFE
Sampling rate               : 44.1 kHz
Frame rate                  : 43.066 FPS (1024 spf)
Compression mode            : Lossy
Delay relative to video     : -83 ms
Stream size                 : 272 MiB (7%)
Language                    : Hindi
Default                     : Yes
Forced                      : No

Audio #2
ID                          : 3
Format                      : AAC
Format/Info                 : Advanced Audio Codec
Format profile              : LC
Codec ID                    : A_AAC
Duration                    : 2 h 17 min
Bit rate                    : 192 kb/s
Channel(s)                  : 6 channels
Channel positions           : Front: L C R, Side: L R, LFE
Sampling rate               : 48.0 kHz
Frame rate                  : 46.875 FPS (1024 spf)
Compression mode            : Lossy
Delay relative to video     : -21 ms
Stream size                 : 189 MiB (5%)
Title                       : Surround
Language                    : English
Default                     : No
Forced                      : No




 
 
 
 
 
 
 
 



SAMPLE








Category:Movies > 3D
Lang:Hindi
Total Size:3.63 GB
Info Hash:61e05f1622a3040cf3e358daaf823adb5cd6fe59
Added By:link2download
Date Added:20-12-2017 09:45:11
Downloads:710

Ratings:Not Yet Rated (Log in to rate it)


Tracker:
udp://tracker.openbittorrent.com:80/announce

This Torrent also has backup trackers
URLSeedersLeechersCompleted
http://ipv4.tracker.harry.lu/announce000
http://ipv4.tracker.harry.lu:80/announce000
http://opentracker-milanesi.rhcloud.com/announce000
http://t.nyaatracker.com/announce110
http://tracker.devil-torrents.pl:80/announce000
http://tracker.devil-torrents.pl/announce000
http://open.kickasstracker.com/announce221
http://opentracker-milanesi.rhcloud.com:80/announce000
http://open.kickasstracker.com:443/announce221
http://opentracker-milanesi.rhcloud.com:443/announce000
http://t.nyaatracker.com:80/announce110


File List: 


Comments

No comments still posted

Top
Copyright 2018 DownloadHD -|- Page Generated In 1.745238 secs.
-|- RSS Feed -|- Feed Info
Pantalones cortos | ... And Finally: Black Bolt | PiKA PiKA Movie (2006)