Login
Username:
Password:
[Signup]
[Recover Account]


Browse Torrents

Poll


You must be logged in to view polls



Latest Torrents
Tigers (2018) Hind...
- [Size: 698.80 MB]

Real.Country.S01E0...
- [Size: 579.76 MB]

Padmaavat.2018 72...
- [Size: 2.99 GB]

TMZ.on.TV.2018.11....
- [Size: 160.78 MB]

New.Amsterdam.2018...
- [Size: 217.38 MB]


Torrent Details For "300 (2006) 1080p[Dual Audio][ENG(5.1)-HINDI(DTS)]~{PHDR}~"

300 (2006) 1080p[Dual Audio][ENG(5.1)-HINDI(DTS)]~{PHDR}~

Download this torrent | Magnet Download
Health:
Seeds: 0
Leechers: 434
Completed:
Last Checked: 19-12-2017 16:22:04
External Torrent
Update Stats



Images Host

Poster


iMDB
Imdb Picture Title: 300
Year: 2006
Runtime: 117 minutes
Votes: 654249
Rating: 7.7/10
Language: English
Country: USA
All Genres: Action, Fantasy
Plot Outline: King Leonidas of Sparta and a force of 300 men fight the Persians at Thermopylae in 480 B.C.
Tagline: Thirsty for Spartan blood!
Director: Zack Snyder
Writing By: Zack Snyder,Kurt Johnstad,Michael B. Gordon,Frank Miller,Lynn Varley,
Produced By: Steve Barnett,Mark Canton,Wesley Coller,William Fay,Craig J. Flores,Bernie Goldmann,Scott Mednick,Frank Miller,Gianni Nunnari,Josette Perrotta,Nathalie Peter-Contesse,Jeffrey Silver,Deborah Snyder,Silenn Thomas,Thomas Tull,Ben Waisbren,
Music: Tyler Bates
Cast:
Gerard Butler as King Leonidas
Lena Headey as Queen Gorgo
Dominic West as Theron
David Wenham as Dilios
Vincent Regan as Captain
Michael Fassbender as Stelios
Tom Wisdom as Astinos
Andrew Pleavin as Daxos
Andrew Tiernan as Ephialtes
Rodrigo Santoro as Xerxes
Trailers:
300
300
300


Watch-Free-HD     Download

Details
Name:300 (2006) 1080p[Dual Audio][ENG(5.1)-HINDI(DTS)]~{PHDR}~
Description:


300 (2006) 1080p[Dual Audio][ENG(5.1)-HINDI(DTS)]~{PHDR}~[/size]

[img]http://vignette.wikia.nocookie.net/logopedia/images/3/36/300_logo.png/revision/latest?cb=20110726192540[/img]



Storyline :

In the Battle of Thermopylae of 480 BC an alliance of Greek city-states fought the invading Persian army in the mountain pass of Thermopylae. Vastly outnumbered, the Greeks held back the enemy in one of the most famous last stands of history. Persian King Xerxes led a Army of well over 100,000 (Persian king Xerxes before war has about 170,000 army) men to Greece and was confronted by 300 Spartans, 700 Thespians, and 400 Thebans. Xerxes waited for 10 days for King Leonidas to surrender or withdraw but left with no options he pushed forward. After 3 days of battle all the Greeks were killed. The Spartan defeat was not the one expected, as a local shepherd, named Ephialtes, defected to the Persians and informed Xerxes that the separate path through Thermopylae, which the Persians could use to outflank the Greeks, was not as heavily guarded as they thought. Written by cyberian2005

Genre :  Action, Fantasy

Cast :

Gerard Butler ... King Leonidas
Lena Headey ... Queen Gorgo
Dominic West ... Theron
David Wenham ...     Dilios
Vincent Regan ... Captain
Michael Fassbender ... Stelios
Tom Wisdom ... Astinos
Andrew Pleavin ... Daxos
Andrew Tiernan ... Ephialtes
Rodrigo Santoro ... Xerxes

General
Unique ID                   : 253171530373208482921957924848300644575 (0xBE77102A05BA0B49AC3FA1BCB87ED8DF)
Complete name               : 300 (2006) 1080p[Dual Audio][ENG(5.1)-HINDI(DTS)]~{PHDR}~.mkv
Format                      : Matroska
Format version              : Version 4 / Version 2
File size                   : 3.50 GiB
Duration                    : 1h 56mn
Overall bit rate            : 4 296 Kbps
Movie name                  : 300 (2006) 1080p[Dual Audio][ENG(5.1)-HINDI(DTS)]~{PHDR}~
Encoded date                : UTC 2017-12-18 13:35:24
Writing application         : mkvmerge v8.6.1 ('Flying') 32bit
Writing library             : libebml v1.3.3 + libmatroska v1.4.4

Video
ID                          : 2
Format                      : HEVC
Format/Info                 : High Efficiency Video Coding
Format profile              : Main [email protected]@Main
Codec ID                    : V_MPEGH/ISO/HEVC
Duration                    : 1h 56mn
Bit rate                    : 3 088 Kbps
Width                       : 1 920 pixels
Height                      : 800 pixels
Display aspect ratio        : 2.40:1
Frame rate mode             : Constant
Frame rate                  : 23.976 (24000/1001) fps
Color space                 : YUV
Chroma subsampling          : 4:2:0
Bit depth                   : 10 bits
Bits/(Pixel*Frame)          : 0.084
Stream size                 : 2.52 GiB (72%)
Title                       : 300 (2006) 1080p[Dual Audio][ENG(5.1)-HINDI(DTS)]~{PHDR}~
Writing library             : x265 2.5+9-fdf39a97ecb8:[Windows][MSVC 1910][64 bit] 10bit
Encoding settings           : cpuid=1173503 / frame-threads=3 / numa-pools=8 / wpp / no-pmode / no-pme / no-psnr / no-ssim / log-level=2 / input-csp=1 / input-res=1920x800 / interlace=0 / total-frames=167801 / level-idc=0 / high-tier=1 / uhd-bd=0 / ref=4 / no-allow-non-conformance / no-repeat-headers / annexb / no-aud / no-hrd / info / hash=0 / no-temporal-layers / open-gop / min-keyint=23 / keyint=250 / bframes=4 / b-adapt=2 / b-pyramid / bframe-bias=0 / rc-lookahead=25 / lookahead-slices=4 / scenecut=40 / no-intra-refresh / ctu=64 / min-cu-size=8 / rect / no-amp / max-tu-size=32 / tu-inter-depth=1 / tu-intra-depth=1 / limit-tu=0 / rdoq-level=2 / dynamic-rd=0.00 / ssim-rd / signhide / no-tskip / nr-intra=0 / nr-inter=0 / no-constrained-intra / strong-intra-smoothing / max-merge=3 / limit-refs=3 / limit-modes / me=3 / subme=3 / merange=57 / temporal-mvp / weightp / no-weightb / no-analyze-src-pics / deblock=0:0 / sao / no-sao-non-deblock / rd=4 / no-early-skip / rskip / no-fast-intra / no-tskip-fast / no-cu-lossless / no-b-intra / rdpenalty=0 / psy-rd=0.00 / psy-rdoq=1.00 / no-rd-refine / analysis-reuse-mode=0 / no-lossless / cbqpoffs=0 / crqpoffs=0 / rc=crf / crf=22.0 / qcomp=0.60 / qpstep=4 / stats-write=0 / stats-read=0 / ipratio=1.40 / pbratio=1.30 / aq-mode=3 / aq-strength=1.00 / cutree / zone-count=0 / no-strict-cbr / qg-size=32 / no-rc-grain / qpmax=69 / qpmin=0 / no-const-vbv / sar=0 / overscan=0 / videoformat=5 / range=0 / colorprim=2 / transfer=2 / colormatrix=2 / chromaloc=0 / display-window=0 / max-cll=0,0 / min-luma=0 / max-luma=1023 / log2-max-poc-lsb=8 / vui-timing-info / vui-hrd-info / slices=1 / opt-qp-pps / opt-ref-list-length-pps / no-multi-pass-opt-rps / scenecut-bias=0.05 / no-opt-cu-delta-qp / no-aq-motion / no-hdr / no-hdr-opt / no-dhdr10-opt / analysis-reuse-level=5 / scale-factor=0 / refine-intra=0 / refine-inter=0 / refine-mv=0 / no-limit-sao / ctu-info=0
Language                    : English
Default                     : Yes
Forced                      : No

Audio #1
ID                          : 1
Format                      : DTS
Format/Info                 : Digital Theater Systems
Mode                        : 16
Format settings, Endianness : Big
Codec ID                    : A_DTS
Duration                    : 1h 56mn
Bit rate mode               : Constant
Bit rate                    : 755 Kbps
Channel(s)                  : 6 channels
Channel positions           : Front: L C R, Side: L R, LFE
Sampling rate               : 48.0 KHz
Frame rate                  : 93.750 fps (512 spf)
Bit depth                   : 24 bits
Compression mode            : Lossy
Delay relative to video     : 150ms
Stream size                 : 630 MiB (18%)
Title                       : Bluray DTS ~{PHDR}~
Language                    : Hindi
Default                     : Yes
Forced                      : No

Audio #2
ID                          : 3
Format                      : AC-3
Format/Info                 : Audio Coding 3
Mode extension              : CM (complete main)
Format settings, Endianness : Big
Codec ID                    : A_AC3
Duration                    : 1h 56mn
Bit rate mode               : Constant
Bit rate                    : 448 Kbps
Channel(s)                  : 6 channels
Channel positions           : Front: L C R, Side: L R, LFE
Sampling rate               : 48.0 KHz
Frame rate                  : 31.250 fps (1536 spf)
Compression mode            : Lossy
Stream size                 : 374 MiB (10%)
Title                       : Bluray ~{PHDR}~
Language                    : English
Default                     : No
Forced                      : No

Text
ID                          : 4
Format                      : VobSub
Muxing mode                 : zlib
Codec ID                    : S_VOBSUB
Codec ID/Info               : Picture based subtitle format used on DVDs
Duration                    : 1h 55mn
Bit rate                    : 3 908 bps
Count of elements           : 957
Stream size                 : 3.22 MiB (0%)
Title                       : Bluray SDH ~{PHDR}~
Language                    : English
Default                     : Yes
Forced                      : No

Menu
00:00:00.000                : en:00:00:00.000
00:05:16.983                : en:00:05:16.983
00:10:23.289                : en:00:10:23.289
00:13:16.796                : en:00:13:16.796
00:16:52.178                : en:00:16:52.178
00:19:44.350                : en:00:19:44.350
00:22:28.347                : en:00:22:28.347
00:27:03.622                : en:00:27:03.622
00:29:16.254                : en:00:29:16.254
00:33:17.829                : en:00:33:17.829
00:35:06.771                : en:00:35:06.771
00:37:49.434                : en:00:37:49.434
00:40:46.277                : en:00:40:46.277
00:44:10.314                : en:00:44:10.314
00:49:17.288                : en:00:49:17.288
00:52:46.330                : en:00:52:46.330
00:55:33.664                : en:00:55:33.664
01:01:40.864                : en:01:01:40.864
01:05:20.750                : en:01:05:20.750
01:08:42.952                : en:01:08:42.952
01:12:43.192                : en:01:12:43.192
01:15:50.379                : en:01:15:50.379
01:18:38.380                : en:01:18:38.380
01:22:20.936                : en:01:22:20.936[b]




 
  
 
  
 

1. SEEDING FROM HIGH SPEED SERVER, ENJOY MAX DOWNLOAD SPEED

2.HELP ME TO SEED THIS TORRENT

3.HELP US-(1337x.TO) THROUGH DONATING BITCOIN  3Qpdm4ckJ64irx1Nuyw9ZCCvc2qxoqkuBY


Category:Movies > Hollywood Dub
Lang:Hindi
Total Size:3.51 GB
Info Hash:f0a03b99adc9acc708e31af7bc8f862e2d07fbf1
Added By:xDownloadHDx
Date Added:18-12-2017 14:17:32
Downloads:490

Ratings:Not Yet Rated (Log in to rate it)


Tracker:
http://bigfoot1942.sektori.org:6969/announce

This Torrent also has backup trackers
URLSeedersLeechersCompleted
http://bigfoot1942.sektori.org:6969/announce000
http://tracker2.wasabii.com.tw:6969/announce000
http://announce.torrentsmd.com:6969/announce000
http://tracker.trackerfix.com/announce000


File List: 


Comments

<< Previous      Next >>
1 - 2

[Report] Posted: 19-12-2017 at 04:53:38
Abia



plz upload 300 rise of an empire......in hindi 5.1 channel 448kbps.......also :D

[Report] Posted: 25-10-2018 at 15:11:56
askfriends



please seed guys..

0 seed at this time..
should i download or not?

1 - 2
<< Previous      Next >>


Top
Copyright 2018 DownloadHD -|- Page Generated In 4.868735 secs.
-|- RSS Feed -|- Feed Info
Saudi Arabia | Josh Casaubon | The Psycho is Back!