Login
Username:
Password:
[Signup]
[Recover Account]


Browse Torrents

Poll


You must be logged in to view polls



Latest Torrents
Villain (2018) Ben...
- [Size: 558.96 MB]

Villain (2018) Ben...
- [Size: 1.49 GB]

Mirzapur (2018) Se...
- [Size: 3.39 GB]

The.Daily.Show.201...
- [Size: 311.67 MB]

How.to.Get.Away.wi...
- [Size: 1.17 GB]


Torrent Details For "Leatherface 2017 720p BRRip x264 AAC 5.1 ESub-Download"

Leatherface 2017 720p BRRip x264 AAC 5.1 ESub-Download

Download this torrent | Magnet Download
Health:
Seeds: 0
Leechers: 55
Completed: 521 
Last Checked: 27-12-2017 17:10:40
External Torrent
Update Stats



Images Host

Poster


iMDB
Imdb Picture Title: Leatherface
Year: 2017
Runtime: 90 minutes
Votes: 2659
Rating: 5.2/10
Language: English
Country: USA
All Genres: Horror, Thriller
Plot Outline: A teenage Leatherface escapes from a mental hospital with three other inmates, kidnapping a young nurse and taking her on a road trip from hell, while being pursued by a lawman out for revenge.
Tagline: Witness the beginning of your end
Director: Alexandre Bustillo
Julien Maury
Writing By: Kim Henkel,Tobe Hooper,Seth M. Sherwood,
Produced By: Christa Campbell,Boaz Davidson,Mark Gill,Kevin Greutert,Lati Grobman,Kim Henkel,Tobe Hooper,Robert Kuhn,Avi Lerner,John Luessenhop,Carl Mazzocone,Elena Melamed,Scott Milam,Beth Bruckner O'Brien,Lonnie Ramati,Trevor Short,John Thompson,Les Weldon,
Music: John Frizzell
Cast:
Stephen Dorff as Hal Hartman
Lili Taylor as Verna
Sam Strike as Jackson
Vanessa Grasse as Lizzy
Finn Jones as Deputy Sorrel
Sam Coleman as Bud
Jessica Madsen as Clarice
James Bloor as Ike
Christopher Adamson as Dr. Lang
Dimo Alexiev as Drayton
Trailers:
Official Trailer
Red Band Trailer


Watch-Free-HD     Download

Details
Name:Leatherface 2017 720p BRRip x264 AAC 5.1 ESub-Download
Description:
Leatherface 2017 720p BRRip x264 AAC 5.1 ESub-Download


Format                      : Matroska
Format version              : Version 4 / Version 2
File size                   : 874 MiB
Duration                    : 1 h 27 min
Overall bit rate            : 1 393 kb/s
Movie name                  : Leatherface 2017-Download


Video
ID                          : 1
Format                      : AVC
Format/Info                 : Advanced Video Codec
Format profile              : [email protected]
Format settings, CABAC      : Yes
Format settings, RefFrames  : 8 frames
Codec ID                    : V_MPEG4/ISO/AVC
Duration                    : 1 h 27 min
Bit rate                    : 1 200 kb/s
Width                       : 1 280 pixels
Height                      : 536 pixels
Display aspect ratio        : 2.40:1
Frame rate mode             : Constant
Frame rate                  : 23.976 (24000/1001) FPS
Default                     : Yes
Forced                      : No
Color range                 : Limited
Color primaries             : BT.709
Transfer characteristics    : BT.709
Matrix coefficients         : BT.709

Audio
ID                          : 2
Format                      : AAC
Format/Info                 : Advanced Audio Codec
Format profile              : LC
Codec ID                    : A_AAC
Duration                    : 1 h 27 min
Bit rate                    : 192 kb/s
Channel(s)                  : 6 channels
Channel positions           : Front: L C R, Side: L R, LFE
Sampling rate               : 48.0 kHz
Frame rate                  : 46.875 FPS (1024 SPF)
Compression mode            : Lossy
Delay relative to video     : -21 ms
Stream size                 : 120 MiB (14%)
Title                       : Surround
Language                    : English
Default                     : Yes
Forced                      : No

Text
ID                          : 3
Format                      : UTF-8
Codec ID                    : S_TEXT/UTF8
Codec ID/Info               : UTF-8 Plain Text
Duration                    : 1 h 23 min
Bit rate                    : 46 b/s
Count of elements           : 1180
Stream size                 : 28.5 KiB (0%)
Language                    : English
Default                     : Yes
Forced                      : No

           
Category:Movies > 720P Bluray
Lang:English  English
Total Size:874.17 MB
Info Hash:7de02a6c0c4180f2f2c4d9934edf3ce9f18c5f50
Added By:Download
Date Added:11-12-2017 06:07:21
Downloads:288

Ratings:Not Yet Rated (Log in to rate it)


Tracker:
udp://tracker.coppersurfer.tk:6969/announce


File List: 


Comments

No comments still posted

Top
Copyright 2018 DownloadHD -|- Page Generated In 0.537676 secs.
-|- RSS Feed -|- Feed Info