Login
Username:
Password:
[Signup]
[Recover Account]


Browse Torrents

Poll


You must be logged in to view polls



Latest Torrents
Mom.S06E11.HDTV.x2...
- [Size: 142.47 MB]

Mom.S06E11.720p.HD...
- [Size: 496.39 MB]

Mom.S06E11.720p.HD...
- [Size: 529.14 MB]

Supernatural.S14E0...
- [Size: 149.74 MB]

The.Apprentice.UK....
- [Size: 806.65 MB]


Torrent Details For "The.Wicked.Within.2015.720p.BRRip.XviD.AC3-RARBG"

The.Wicked.Within.2015.720p.BRRip.XviD.AC3-RARBG

Download this torrent | Magnet Download
Health:
Seeds: 0
Leechers: 2
Completed:
Last Checked: 18-08-2018 19:37:30
External Torrent
Update Stats



Images Host

Poster
No poster


iMDB
Imdb Picture Title: The Wicked Within
Year: 2015
Runtime: 84 minutes
Votes: 1025
Rating: 4.6/10
Language: English
Country: USA
All Genres: Horror
Plot Outline: After a year passes since the sudden death of a child, a family gathering takes place whilst peculiar unexplainable events occur.
Tagline: We all pay for our sins, especially when the devil itself claims our souls
Director: Jay Alaimo
Writing By: Stephen Wallis,
Produced By: Walter Barrat,Stephanie Caleb,Gianni Capaldi,Enzo Cilenti,Loris Curci,Andrea De Liberato,Patrick Durham,Melissa Engle,Anthony Girasoli,Phillip B. Goldfine,Nik Goldman,Sienna Guillory,Michele Hicks,Scott Karol,Daniel King,William McNamara,Jax Moore,Emanuele Moretti,Courtney Solomon,
Music: Ali Helnwein
Cast:
Sienna Guillory as Bethany
Gianni Capaldi as Luke
Enzo Cilenti as Michael
Michele Hicks as Hannah
Eric Roberts as Dr. Woods
Karen Austin as Jean
Sonja Kinski as Maggie
Heath Freeman as Father Patrick
Patrick Muldoon as Dr. Adams
Sarah Lassez as Samara
Trailers:
The Wicked Within


Watch-Free-HD     Download

Details
Name:The.Wicked.Within.2015.720p.BRRip.XviD.AC3-RARBG
Description:
[URL=" [/URL]" target="_blank" http://imagecurl.com/viewer.ph...humb.png[/IMG][/URL]
[URL=" [/URL]" target="_blank" http://imagecurl.com/viewer.ph...humb.png[/IMG][/URL]
[URL=" [/URL]" target="_blank" http://imagecurl.com/viewer.ph...humb.png[/IMG][/URL]
[URL=" [/URL]" target="_blank" http://imagecurl.com/viewer.ph...humb.png[/IMG][/URL]
[URL=" [/URL]" target="_blank" http://imagecurl.com/viewer.ph...humb.png[/IMG][/URL]

Video
ID                                       : 0
Format                                   : MPEG-4 Visual
Format profile                           : [email protected]
Format settings, BVOP                    : No
Format settings, QPel                    : No
Format settings, GMC                     : No warppoints
Format settings, Matrix                  : Default (H.263)
Codec ID                                 : XVID
Codec ID/Hint                            : XviD
Duration                                 : 1 h 23 min
Bit rate                                 : 3 334 kb/s
Width                                    : 1 280 pixels
Height                                   : 720 pixels
Display aspect ratio                     : 16:9
Frame rate                               : 23.976 (24000/1001) FPS
Color space                              : YUV
Chroma subsampling                       : 4:2:0
Bit depth                                : 8 bits
Scan type                                : Progressive
Compression mode                         : Lossy
Bits/(Pixel*Frame)                       : 0.151
Stream size                              : 1.93 GiB (84%)
Writing library                          : Lavc57.89.100

Audio
ID                                       : 1
Format                                   : AC-3
Format/Info                              : Audio Coding 3
Format settings, Endianness              : Big
Codec ID                                 : 2000
Duration                                 : 1 h 23 min
Bit rate mode                            : Constant
Bit rate                                 : 640 kb/s
Channel(s)                               : 6 channels
Channel positions                        : Front: L C R, Side: L R, LFE
Sampling rate                            : 48.0 kHz
Frame rate                               : 31.250 FPS (1536 SPF)
Bit depth                                : 16 bits
Compression mode                         : Lossy
Stream size                              : 380 MiB (16%)
Alignment                                : Aligned on interleaves
Interleave, duration                     : 42  ms (1.00 video frame)
Interleave, preload duration             : 512  ms
Service kind                             : Complete Main
Category:Movies > Xvid
Lang:English  English
Total Size:2.31 GB
Info Hash:88a5a4354dd7a1d83209fe8d6b8d72ed84084089
Added By:Agent47
Date Added:26-11-2017 11:44:39
Downloads:99

Ratings:Not Yet Rated (Log in to rate it)


Tracker:
http://tracker.trackerfix.com:80/announce


File List: 


Comments

No comments still posted

Top
Copyright 2018 DownloadHD -|- Page Generated In 0.828763 secs.
-|- RSS Feed -|- Feed Info
Maou Dante | BootIt AIO Retail, Gestor de Arranque Múltiple. | Улица [02x01-32 из 60] (2018) HDTVRip от GeneralFilm 36 minutes