Login
Username:
Password:
[Signup]
[Recover Account]


Browse Torrents

Poll


You must be logged in to view polls



Latest Torrents
Puzzle.2018.HDRip....
- [Size: 1.43 GB]

Puzzle.2018.HDRip....
- [Size: 1.34 GB]

Sui.Dhaaga.2018.Hi...
- [Size: 3.00 GB]

The Girl in the Sp...
- [Size: 972.81 MB]

Sally4Ever.S01E01....
- [Size: 195.91 MB]


Torrent Details For "3 Idiots 2009 1080p Bluray 12bit x265 5.1 AAC HEVC Natty"

3 Idiots 2009 1080p Bluray 12bit x265 5.1 AAC HEVC Natty

Download this torrent | Magnet Download
Health:
Seeds: 0
Leechers: 0
Completed:
Last Checked: 12-11-2018 19:18:54
External Torrent
Update Stats



Images Host

Poster


iMDB
Imdb Picture Title: 3 Idiots
Year: 2009
Runtime: 170 minutes
Votes: 253519
Rating: 8.4/10
Language: Hindi, English
Country: India
All Genres: Comedy, Drama
Plot Outline: Two friends are searching for their long lost companion. They revisit their college days and recall the memories of their friend who inspired them to think differently, even as the rest of the world called them "idiots".
Tagline: Don't be Stupid. Be an I.D.I.O.T.
Director: Rajkumar Hirani
Writing By: Rajkumar Hirani,Abhijat Joshi,Vidhu Vinod Chopra,Abhijat Joshi,Chetan Bhagat,
Produced By: Vidhu Vinod Chopra,Vir Chopra,Anil Davda,Sanjiv Kishinchandani,Aman Mahajan,Ravi Sarin,
Music: Shantanu Moitra Atul Raninga Sanjay Wandrekar
Cast:
Aamir Khan as 'Rancho' Shamaldas Chanchad
Madhavan as Farhan Qureshi
Sharman Joshi as Raju Rastogi
Kareena Kapoor Khan as Pia
Boman Irani as Viru Sahastrabudhhe
Omi Vaidya as Chatur 'Silencer' Ramalingam
Mona Singh as Mona
Javed Jaffrey as Ranchoddas Shamaldas Chanchad
Parikshat Sahni as Mr. Qureshi
Olivier Lafont as Suhas Tandon


Watch-Free-HD     Download

Details
Name:3 Idiots 2009 1080p Bluray 12bit x265 5.1 AAC HEVC Natty
Description:
3 Idiots 2009 in 1080p, encoded with x265 (HEVC) and 5.1 AAC Hindi Audio and Several other 5.1 AAC Audios with multiple subtitles!
Encoded using the time consuming Slow Preset with 2 pass, 12 bit color at 3002 kbps, from Untouched Bluray Source, for the highest quality possible.



PLEASE SEED IF YOU WANT ME TO UPLOAD MORE:Qpirate:

Quote:

RECOMMENDED PLAYER: POTPLAYER

Source: Untouched Russian Bluray by rutracker

Screenshots


















Encode Media Info:

Quote:

General
Complete name                            : 3 Idiots 2009 1080p Bluray 12bit x265 5.1 AAC HEVC Natty.mkv
Format                                   : Matroska
Format version                           : Version 4 / Version 2
File size                                : 4.77 GiB
Duration                                 : 2 h 51 min
Overall bit rate                         : 3 991 kb/s
Movie name                               : 3 Idiots
Encoded date                             : UTC 2017-11-21 16:19:27
Writing application                      : mkvmerge v18.0.0 ('Apricity') 64-bit
Writing library                          : libebml v1.3.5 + libmatroska v1.4.8
Cover                                    : Yes
Attachments                              : cover.jpg
Writing frontend                         : Natty

Video
ID                                       : 1
Format                                   : HEVC
Format/Info                              : High Efficiency Video Coding
Format profile                           : @[email protected]
Codec ID                                 : V_MPEGH/ISO/HEVC
Duration                                 : 2 h 51 min
Bit rate                                 : 3 002 kb/s
Width                                    : 1 920 pixels
Height                                   : 816 pixels
Display aspect ratio                     : 2.35:1
Frame rate mode                          : Constant
Frame rate                               : 24.000 FPS
Color space                              : YUV
Chroma subsampling                       : 4:2:0
Bit depth                                : 12 bits
Bits/(Pixel*Frame)                       : 0.080
Stream size                              : 3.59 GiB (75%)
Writing library                          : x265 2.5+49-563cbe1f4a21:[Windows][MSVC 1911][64 bit] 12bit
Encoding settings                        : cpuid=1173503 / frame-threads=2 / numa-pools=4 / wpp / no-pmode / no-pme / no-psnr / no-ssim / log-level=2 / csvfn=D:\Encoding\3idiots\3_IDIOTS_t00_new.csv / csv-log-level=0 / input-csp=1 / input-res=1920x816 / interlace=0 / total-frames=246415 / level-idc=0 / high-tier=1 / uhd-bd=0 / ref=6 / no-allow-non-conformance / no-repeat-headers / annexb / no-aud / no-hrd / info / hash=0 / no-temporal-layers / open-gop / min-keyint=24 / keyint=400 / bframes=8 / b-adapt=2 / b-pyramid / bframe-bias=0 / rc-lookahead=100 / lookahead-slices=5 / scenecut=40 / no-intra-refresh / ctu=32 / min-cu-size=8 / no-rect / no-amp / max-tu-size=16 / tu-inter-depth=1 / tu-intra-depth=1 / limit-tu=0 / rdoq-level=2 / dynamic-rd=0.00 / no-ssim-rd / signhide / no-tskip / nr-intra=0 / nr-inter=0 / no-constrained-intra / no-strong-intra-smoothing / max-merge=2 / limit-refs=3 / limit-modes / me=3 / subme=5 / merange=57 / temporal-mvp / weightp / no-weightb / no-analyze-src-pics / deblock=-3:0 / no-sao / no-sao-non-deblock / rd=4 / no-early-skip / rskip / no-fast-intra / no-tskip-fast / no-cu-lossless / no-b-intra / no-splitrd-skip / rdpenalty=0 / psy-rd=2.00 / psy-rdoq=6.00 / no-rd-refine / analysis-reuse-mode=0 / no-lossless / cbqpoffs=0 / crqpoffs=0 / rc=abr / bitrate=3001 / qcomp=0.90 / qpstep=4 / stats-write=0 / stats-read=2 / cplxblur=20.0 / qblur=0.5 / ipratio=1.40 / pbratio=1.30 / aq-mode=3 / aq-strength=0.90 / cutree / zone-count=0 / no-strict-cbr / qg-size=16 / no-rc-grain / qpmax=69 / qpmin=0 / no-const-vbv / sar=0 / overscan=0 / videoformat=5 / range=1 / colorprim=1 / transfer=1 / colormatrix=1 / chromaloc=0 / display-window=0 / max-cll=0,0 / min-luma=0 / max-luma=4095 / log2-max-poc-lsb=8 / vui-timing-info / vui-hrd-info / slices=1 / opt-qp-pps / opt-ref-list-length-pps / multi-pass-opt-rps / scenecut-bias=0.05 / no-opt-cu-delta-qp / aq-motion / no-hdr / no-hdr-opt / no-dhdr10-opt / analysis-reuse-level=9 / scale-factor=0 / refine-intra=0 / refine-inter=0 / refine-mv=0 / no-limit-sao / ctu-info=0 / no-lowpass-dct / refine-mv-type=0
Default                                  : Yes
Forced                                   : No
Color range                              : Full
Color primaries                          : BT.709
Transfer characteristics                 : BT.709
Matrix coefficients                      : BT.709

Audio #1
ID                                       : 2
Format                                   : AAC
Format/Info                              : Advanced Audio Codec
Format profile                           : LC
Codec ID                                 : A_AAC-2
Duration                                 : 2 h 51 min
Bit rate                                 : 489 kb/s
Channel(s)                               : 6 channels
Channel positions                        : Front: L C R, Side: L R, LFE
Sampling rate                            : 48.0 kHz
Frame rate                               : 46.875 FPS (1024 SPF)
Compression mode                         : Lossy
Delay relative to video                  : 20 ms
Stream size                              : 598 MiB (12%)
Title                                    : Original
Language                                 : Hindi
Default                                  : Yes
Forced                                   : No

Audio #2
ID                                       : 3
Format                                   : AAC
Format/Info                              : Advanced Audio Codec
Format profile                           : HE-AAC / LC
Format settings                          : Explicit
Codec ID                                 : A_AAC-2
Duration                                 : 2 h 51 min
Bit rate                                 : 48.0 kb/s
Channel(s)                               : 2 channels
Channel positions                        : Front: L R
Sampling rate                            : 48.0 kHz / 24.0 kHz
Frame rate                               : 23.438 FPS (1024 SPF)
Compression mode                         : Lossy
Delay relative to video                  : 40 ms
Stream size                              : 59.6 MiB (1%)
Title                                    : Directors Commentary
Language                                 : English
Default                                  : No
Forced                                   : No

Audio #3
ID                                       : 4
Format                                   : AAC
Format/Info                              : Advanced Audio Codec
Format profile                           : HE-AAC / LC
Format settings                          : Explicit
Codec ID                                 : A_AAC-2
Duration                                 : 2 h 51 min
Bit rate                                 : 211 kb/s
Channel(s)                               : 6 channels
Channel positions                        : Front: L C R, Side: L R, LFE
Sampling rate                            : 48.0 kHz / 24.0 kHz
Frame rate                               : 23.438 FPS (1024 SPF)
Compression mode                         : Lossy
Delay relative to video                  : 40 ms
Stream size                              : 259 MiB (5%)
Title                                    : Russian BBC SP
Language                                 : Russian
Default                                  : No
Forced                                   : No

Audio #4
ID                                       : 5
Format                                   : AAC
Format/Info                              : Advanced Audio Codec
Format profile                           : HE-AAC / LC
Format settings                          : Explicit
Codec ID                                 : A_AAC-2
Duration                                 : 2 h 51 min
Bit rate                                 : 140 kb/s
Channel(s)                               : 6 channels
Channel positions                        : Front: L C R, Side: L R, LFE
Sampling rate                            : 48.0 kHz / 24.0 kHz
Frame rate                               : 23.438 FPS (1024 SPF)
Compression mode                         : Lossy
Delay relative to video                  : 40 ms
Stream size                              : 171 MiB (4%)
Title                                    : Russian Zamez
Language                                 : Russian
Default                                  : No
Forced                                   : No

Text #1
ID                                       : 6
Format                                   : PGS
Muxing mode                              : zlib
Codec ID                                 : S_HDMV/PGS
Codec ID/Info                            : Picture based subtitle format used on BDs/HD-DVDs
Duration                                 : 2 h 46 min
Bit rate                                 : 33.9 kb/s
Count of elements                        : 4266
Stream size                              : 40.5 MiB (1%)
Language                                 : English
Default                                  : Yes
Forced                                   : No

Text #2
ID                                       : 7
Format                                   : PGS
Muxing mode                              : zlib
Codec ID                                 : S_HDMV/PGS
Codec ID/Info                            : Picture based subtitle format used on BDs/HD-DVDs
Duration                                 : 2 h 46 min
Bit rate                                 : 21.3 kb/s
Count of elements                        : 4274
Stream size                              : 25.4 MiB (1%)
Language                                 : Arabic
Default                                  : No
Forced                                   : No

Text #3
ID                                       : 8
Format                                   : PGS
Muxing mode                              : zlib
Codec ID                                 : S_HDMV/PGS
Codec ID/Info                            : Picture based subtitle format used on BDs/HD-DVDs
Duration                                 : 2 h 48 min
Bit rate                                 : 32.5 kb/s
Count of elements                        : 4278
Stream size                              : 39.1 MiB (1%)
Language                                 : Dutch
Default                                  : No
Forced                                   : No

Text #4
ID                                       : 9
Format                                   : PGS
Muxing mode                              : zlib
Codec ID                                 : S_HDMV/PGS
Codec ID/Info                            : Picture based subtitle format used on BDs/HD-DVDs
Duration                                 : 2 h 46 min
Bit rate                                 : 33.8 kb/s
Count of elements                        : 4453
Stream size                              : 40.4 MiB (1%)
Language                                 : French
Default                                  : No
Forced                                   : No

Text #5
ID                                       : 10
Format                                   : PGS
Muxing mode                              : zlib
Codec ID                                 : S_HDMV/PGS
Codec ID/Info                            : Picture based subtitle format used on BDs/HD-DVDs
Duration                                 : 2 h 46 min
Bit rate                                 : 33.2 kb/s
Count of elements                        : 4401
Stream size                              : 39.7 MiB (1%)
Language                                 : Portuguese
Default                                  : No
Forced                                   : No

Text #6
ID                                       : 11
Format                                   : PGS
Muxing mode                              : zlib
Codec ID                                 : S_HDMV/PGS
Codec ID/Info                            : Picture based subtitle format used on BDs/HD-DVDs
Duration                                 : 2 h 46 min
Bit rate                                 : 52.1 kb/s
Count of elements                        : 4453
Stream size                              : 62.2 MiB (1%)
Language                                 : Russian
Default                                  : No
Forced                                   : No

Text #7
ID                                       : 12
Format                                   : PGS
Muxing mode                              : zlib
Codec ID                                 : S_HDMV/PGS
Codec ID/Info                            : Picture based subtitle format used on BDs/HD-DVDs
Duration                                 : 2 h 46 min
Bit rate                                 : 33.3 kb/s
Count of elements                        : 4395
Stream size                              : 39.8 MiB (1%)
Language                                 : Spanish
Default                                  : No
Forced                                   : No

Category:Movies > HEVC
Lang:Hindi
Total Size:4.83 GB
Info Hash:fadec804378a6c277a9ee5f5626a7b0ae303bfed
Added By:Natty
Date Added:21-11-2017 17:07:49
Downloads:359

Ratings:Not Yet Rated (Log in to rate it)


Tracker:
udp://tracker.torrent.eu.org:451/announce


File List: 


Comments

No comments still posted

Top
Copyright 2018 DownloadHD -|- Page Generated In 2.892839 secs.
-|- RSS Feed -|- Feed Info