Login
Username:
Password:
[Signup]
[Recover Account]


Browse Torrents

Poll


You must be logged in to view polls



Latest Torrents
Legacies.S01E07.72...
- [Size: 710.06 MB]

Legacies.S01E07.HD...
- [Size: 189.78 MB]

Murphy.Brown.S11E1...
- [Size: 497.42 MB]

Mom.S06E11.720p.HD...
- [Size: 106.15 MB]

Mom.S06E11.HDTV.x2...
- [Size: 142.47 MB]


Torrent Details For "Bose Dead Alive Season 01 Episode 03 (Catch Me If You Can) 1080p WEB-DL x264 ESub"

Bose Dead Alive Season 01 Episode 03 (Catch Me If You Can) 1080p WEB-DL x264 ESub

Download this torrent | Magnet Download
Health:
Seeds: 0
Leechers: 6
Completed:
Last Checked: 20-08-2018 07:11:48
External Torrent
Update Stats



Images Host

Poster


Watch-Free-HD     Download

Details
Name:Bose Dead Alive Season 01 Episode 03 (Catch Me If You Can) 1080p WEB-DL x264 ESub
Description:



General
Format                                   : Matroska
Format version                           : Version 4 / Version 2
File size                                : 777 MiB
Duration                                 : 22 min 44 s
Overall bit rate                         : 4 777 kb/s

Video
ID                                       : 1
Format                                   : AVC
Format/Info                              : Advanced Video Codec
Format profile                           : [email protected]
Format settings                          : CABAC / 4 Ref Frames
Format settings, CABAC                   : Yes
Format settings, RefFrames               : 4 frames
Codec ID                                 : V_MPEG4/ISO/AVC
Duration                                 : 22 min 44 s
Bit rate                                 : 4 500 kb/s
Width                                    : 1 920 pixels
Height                                   : 1 088 pixels
Original height                          : 1 080 pixels
Display aspect ratio                     : 16:9
Original display aspect ratio            : 16:9
Frame rate mode                          : Constant
Frame rate                               : 25.000 FPS
Color space                              : YUV
Chroma subsampling                       : 4:2:0
Bit depth                                : 8 bits
Scan type                                : Progressive
Bits/(Pixel*Frame)                       : 0.086
Stream size                              : 746 MiB (96%)
Writing library                          : x264 core 142 r2431 ac76440
Default                                  : Yes
Forced                                   : No

Audio
ID                                       : 2
Format                                   : AC-3
Format/Info                              : Audio Coding 3
Format settings, Endianness              : Big
Codec ID                                 : A_AC3
Duration                                 : 22 min 44 s
Bit rate mode                            : Constant
Bit rate                                 : 192 kb/s
Channel(s)                               : 2 channels
Channel positions                        : Front: L R
Sampling rate                            : 44.1 kHz
Frame rate                               : 28.711 FPS (1536 SPF)
Bit depth                                : 16 bits
Compression mode                         : Lossy
Stream size                              : 31.2 MiB (4%)
Service kind                             : Complete Main
Default                                  : Yes
Forced                                   : No

Text
ID                                       : 3
Format                                   : UTF-8
Codec ID                                 : S_TEXT/UTF8
Codec ID/Info                            : UTF-8 Plain Text
Duration                                 : 18 min 58 s
Bit rate                                 : 73 b/s
Count of elements                        : 287
Stream size                              : 10.3 KiB (0%)
Default                                  : Yes
Forced                                   : No














Category:TV > Indian
Lang:Hindi
Total Size:777.33 MB
Info Hash:1e40d5b430c80618ba27ee160c008b5caccfa766
Added By:Freaky
Date Added:21-11-2017 15:00:14
Downloads:391

Ratings:Not Yet Rated (Log in to rate it)


Tracker:
udp://tracker.leechers-paradise.org:6969/announce

This Torrent also has backup trackers
URLSeedersLeechersCompleted
http://bigfoot1942.sektori.org:6969/announce000
http://ipv4.tracker.harry.lu/announce515
http://ipv4.tracker.harry.lu:80/announce515
http://open.kickasstracker.com/announce450
http://glotorrents.pw:80/announce000
http://tracker.devil-torrents.pl/announce000


File List: 


Comments

<< Previous      Next >>
1 - 1

[Report] Posted: 28-11-2017 at 11:11:17
rahularyacam



Thank you so so much. When can you upload episodes 4-9 in 1080p?

1 - 1
<< Previous      Next >>


Top
Copyright 2018 DownloadHD -|- Page Generated In 1.545953 secs.
-|- RSS Feed -|- Feed Info
Large 25mm Satin Ribbon Double Bows - Choose Pack Size and Colour Free PP | Design by Skidrowcpy.com | Running Man Episode 70