Login
Username:
Password:
[Signup]
[Recover Account]


Browse Torrents

Poll


You must be logged in to view polls



Latest Torrents
A Turtle's Tale 2 ...
- [Size: 1.26 GB]

Ekon.Eken-[2018]-[...
- [Size: 1.99 GB]

Madras Cafe (2013)...
- [Size: 1.69 GB]

Crazy Frog - The B...
- [Size: 111.67 MB]

Beyond.The.Sky.201...
- [Size: 16.97 GB]


Torrent Details For "Mantostaan 2017 Hindi 1080p Untouched WEB-DL x264 AAC ESub -DownloadHD"

Mantostaan 2017 Hindi 1080p Untouched WEB-DL x264 AAC ESub -DownloadHD

Download this torrent | Magnet Download
Health:
Seeds: 0
Leechers: 31
Completed:
Last Checked: 09-10-2018 14:23:57
External Torrent
Update Stats



Images Host

Poster


iMDB
Imdb Picture Title: Mantostaan
Year: 2016
Runtime: 92 minutes
Votes: 13
Rating: 6.9/10
Language: Urdu, Hindi
Country: India
All Genres: Drama, History
Plot Outline: A DARK SATIRE ON INDIA PAKISTAN PARTITION IN 1947
Tagline: By Aaditya Pratap Singh Entertainments
Director: Rahat Kazmi
Writing By: Saadat Hassan Manto,
Produced By: Javid Banday,Rahat Kazmi,Tariq Khan,Zeba Sajid,Aaditya Pratap Singh,Dr. Bhanu Pratap Singh,
Cast:
Sonal Sehgal as Kulwant Kaur
Raghuvir Yadav as Sirajuddin
Veerendra Saxena as Milan Sahab
Rahat Kazmi as Rabi Nawaz
Tariq Khan as Ram Singh
Sakshi Bhat as Sakina
Raina Bassnet as Sugra
Aaditya Pratap Singh as Aaditya
Shoib Shah as Ishar Singh


Watch-Free-HD     Download

Details
Name:Mantostaan 2017 Hindi 1080p Untouched WEB-DL x264 AAC ESub -DownloadHD
Description:
Mantostaan 2017 Hindi 1080p Untouched WEB-DL x264 AAC ESub -DownloadHD

Format                      : Matroska
Format version              : Version 4 / Version 2
File size                   : 3.01 GiB
Duration                    : 1 h 22 min
Overall bit rate            : 5 248 kb/s
Movie name                  : Mantostaan 2017-Download


Video
ID                          : 1
Format                      : AVC
Format/Info                 : Advanced Video Codec
Format profile              : [email protected]
Format settings, CABAC      : Yes
Format settings, ReFrames   : 1 frame
Format settings, GOP        : M=1, N=25
Codec ID                    : V_MPEG4/ISO/AVC
Duration                    : 1 h 22 min
Bit rate mode               : Constant
Bit rate                    : 5 121 kb/s
Nominal bit rate            : 6 000 kb/s
Width                       : 1 920 pixels
Height                      : 1 080 pixels
Display aspect ratio        : 16:9
Frame rate mode             : Constant
Frame rate                  : 25.000 FPS
Color space                 : YUV
Chroma subsampling          : 4:2:0
Bit depth                   : 8 bits
Scan type                   : Progressive
Bits/(Pixel*Frame)          : 0.099
Stream size                 : 2.94 GiB (98%)
Language                    : Hindi
Default                     : Yes
Forced                      : No

Audio
ID                          : 2
Format                      : AAC
Format/Info                 : Advanced Audio Codec
Format profile              : LC
Codec ID                    : A_AAC
Duration                    : 1 h 22 min
Bit rate                    : 125 kb/s
Channel(s)                  : 2 channels
Channel positions           : Front: L R
Sampling rate               : 48.0 kHz
Frame rate                  : 46.875 FPS (1024 spf)
Compression mode            : Lossy
Delay relative to video     : 9 ms
Stream size                 : 73.5 MiB (2%)
Language                    : Hindi
Default                     : Yes
Forced                      : No

Text
ID                          : 3
Format                      : UTF-8
Codec ID                    : S_TEXT/UTF8
Codec ID/Info               : UTF-8 Plain Text
Duration                    : 1 h 19 min
Bit rate                    : 36 b/s
Count of elements           : 769
Stream size                 : 21.2 KiB (0%)
Language                    : English
Default                     : Yes
Forced                      : No


         
Category:Movies > Bollywood
Lang:Hindi
Total Size:3.01 GB
Info Hash:b4d317e52d4c714446035d676040d1c71d749b0a
Added By:Download
Date Added:20-11-2017 20:52:06
Downloads:368

Ratings:Not Yet Rated (Log in to rate it)


Tracker:
udp://tracker.coppersurfer.tk:6969/announce


File List: 


Comments

No comments still posted

Top
Copyright 2018 DownloadHD -|- Page Generated In 0.630212 secs.
-|- RSS Feed -|- Feed Info
Watch movie | 10 Cast Iron Brown 3 Ornate Pulls Drawer Cabinet Bin Handles Rustic Vintage | Izzy Gets the Fuck Across Town