Login
Username:
Password:
[Signup]
[Recover Account]


Browse Torrents

Poll


You must be logged in to view polls



Latest Torrents
Villain (2018) Ben...
- [Size: 558.96 MB]

Villain (2018) Ben...
- [Size: 1.49 GB]

Mirzapur (2018) Se...
- [Size: 3.39 GB]

The.Daily.Show.201...
- [Size: 311.67 MB]

How.to.Get.Away.wi...
- [Size: 1.17 GB]


Torrent Details For "Munna Bhai M.B.B.S. 2003 Hindi 720p Web-HD x264 AAC-hddownload3"

Munna Bhai M.B.B.S. 2003 Hindi 720p Web-HD x264 AAC-hddownload3

Download this torrent | Magnet Download
Health:
Seeds: 0
Leechers: 24
Completed:
Last Checked: 23-09-2018 06:59:02
External Torrent
Update Stats



Images Host

Poster


iMDB
Imdb Picture Title: Munna Bhai M.B.B.S.
Year: 2003
Runtime: 156 minutes
Votes: 55665
Rating: 8.2/10
Language: Hindi
Country: India
All Genres: Comedy, Drama, Romance
Plot Outline: A gangster sets out to fulfill his father's dream of becoming a doctor.
Tagline: His prescription is ... love
Director: Rajkumar Hirani
Writing By: Vidhu Vinod Chopra,Rajkumar Hirani,Rajkumar Hirani,Lajan Joseph,Abbas Tyrewala,
Produced By: Vidhu Vinod Chopra,Vir Chopra,
Music: Anu Malik
Cast:
Sunil Dutt as Shri Hari Prasad Sharma
Sanjay Dutt as Murli Prasad 'Munna Bhai' Sharma
Arshad Warsi as Circuit
Gracy Singh as Dr. Suman Asthana (Chinki)
Boman Irani as Dr. J. C. Asthana
Rohini Hattangadi as Parvati Sharma
Kurush Deboo as Dr. Rustam Pavri
Jimmy Shergill as Zaheer
Yatin Karyekar as Anand Banerjee
Suresh Chatwal as Manilal


Watch-Free-HD     Download

Details
Name:Munna Bhai M.B.B.S. 2003 Hindi 720p Web-HD x264 AAC-hddownload3
Description:
Format                                   : Matroska
Format version                           : Version 4 / Version 2
File size                                : 1.19 GiB
Duration                                 : 2 h 36 min
Overall bit rate                         : 1 093 kb/s
Movie name                               : Encodinng by hddownload3.com
Encoded date                             : UTC 2017-11-18 11:01:30

Video
ID                                       : 1
Format                                   : AVC
Format/Info                              : Advanced Video Codec
Format profile                           : [email protected]
Format settings                          : CABAC / 4 Ref Frames
Format settings, CABAC                   : Yes
Format settings, ReFrames                : 4 frames
Codec ID                                 : V_MPEG4/ISO/AVC
Duration                                 : 2 h 36 min
Bit rate                                 : 963 kb/s
Width                                    : 1 280 pixels
Height                                   : 544 pixels
Display aspect ratio                     : 2.35:1
Frame rate mode                          : Constant
Frame rate                               : 23.976 (24000/1001) FPS
Color space                              : YUV
Chroma subsampling                       : 4:2:0
Bit depth                                : 8 bits
Scan type                                : Progressive
Bits/(Pixel*Frame)                       : 0.058
Stream size                              : 1.05 GiB (88%)
Writing library                          : x264 core 148 r2708 86b7198
Default                                  : Yes
Forced                                   : No
Color range                              : Limited
Color primaries                          : BT.709
Transfer characteristics                 : BT.709
Matrix coefficients                      : BT.709

Audio
ID                                       : 2
Format                                   : AAC
Format/Info                              : Advanced Audio Codec
Format profile                           : LC
Codec ID                                 : A_AAC-2
Duration                                 : 2 h 36 min
Bit rate                                 : 128 kb/s
Channel(s)                               : 2 channels
Channel positions                        : Front: L R
Sampling rate                            : 48.0 kHz
Frame rate                               : 46.875 FPS (1024 SPF)
Compression mode                         : Lossy
Delay relative to video                  : -12 ms
Stream size                              : 143 MiB (12%)
Language                                 : Hindi
Default                                  : Yes
Forced                                   : No






Category:Movies > Bollywood
Lang:Hindi
Total Size:1.19 GB
Info Hash:9128672721dd25186566dd2f235153d92678c7b5
Added By:hddownload3
Date Added:18-11-2017 11:22:54
Downloads:425

Ratings:Not Yet Rated (Log in to rate it)


Tracker:
udp://tracker.coppersurfer.tk:6969/announce


File List: 


Comments

<< Previous      Next >>
1 - 3

[Report] Posted: 18-11-2017 at 11:26:00
Download
Team DownloadHD


Munna Bhai M.B.B.S. 2003 Hindi 720p Blu-ray x264 AAC-hddownload3.com

from where you got its bluray ......lol

OO man please dont be FAKE.

[Report] Posted: 18-11-2017 at 11:35:44
hddownload3
VIP


my mistake

[Report] Posted: 24-07-2018 at 19:16:18
bladez



seed please

1 - 3
<< Previous      Next >>


Top
Copyright 2018 DownloadHD -|- Page Generated In 1.018212 secs.
-|- RSS Feed -|- Feed Info