Login
Username:
Password:
[Signup]
[Recover Account]


Browse Torrents

Poll


You must be logged in to view polls



Latest Torrents
MacGyver.2016.S03E...
- [Size: 487.54 MB]

MacGyver.2016.S03E...
- [Size: 1.36 GB]

Room.104.S02E03.WE...
- [Size: 223.50 MB]

Real.Time.With.Bil...
- [Size: 329.66 MB]

Van.Helsing.S03E07...
- [Size: 825.83 MB]


Torrent Details For "A Flying Jatt 2016 Hindi 1080p Netflix WEB-HD DD 2.0 x264 ESub"

A Flying Jatt 2016 Hindi 1080p Netflix WEB-HD DD 2.0 x264 ESub

Download this torrent | Magnet Download
Health:
Seeds: 0
Leechers: 55
Completed: 324 
Last Checked: 14-02-2018 21:14:18
External Torrent
Update Stats



Images Host

Poster


Watch-Free-HD     Download

Details
Name:A Flying Jatt 2016 Hindi 1080p Netflix WEB-HD DD 2.0 x264 ESub
Description:

General
Format                                   : Matroska
Format version                           : Version 4 / Version 2
File size                                : 4.23 GiB
Duration                                 : 2 h 22 min
Overall bit rate                         : 4 257 kb/s

Video
ID                                       : 1
Format                                   : AVC
Format/Info                              : Advanced Video Codec
Format profile                           : [email protected]
Format settings                          : CABAC / 2 Ref Frames
Format settings, CABAC                   : Yes
Format settings, RefFrames               : 2 frames
Format settings, GOP                     : M=3, N=30
Muxing mode                              : Container [email protected]
Codec ID                                 : V_MPEG4/ISO/AVC
Duration                                 : 2 h 22 min
Bit rate                                 : 4 063 kb/s
Width                                    : 1 920 pixels
Height                                   : 808 pixels
Display aspect ratio                     : 2.40:1
Frame rate mode                          : Constant
Frame rate                               : 25.000 FPS
Color space                              : YUV
Chroma subsampling                       : 4:2:0
Bit depth                                : 8 bits
Scan type                                : Progressive
Bits/(Pixel*Frame)                       : 0.105
Stream size                              : 4.04 GiB (95%)
Default                                  : Yes
Forced                                   : No

Audio
ID                                       : 2
Format                                   : AC-3
Format/Info                              : Audio Coding 3
Format settings, Endianness              : Big
Codec ID                                 : A_AC3
Duration                                 : 2 h 22 min
Bit rate mode                            : Constant
Bit rate                                 : 192 kb/s
Channel(s)                               : 2 channels
Channel positions                        : Front: L R
Sampling rate                            : 48.0 kHz
Frame rate                               : 31.250 FPS (1536 SPF)
Bit depth                                : 16 bits
Compression mode                         : Lossy
Stream size                              : 196 MiB (5%)
Service kind                             : Complete Main
Default                                  : Yes
Forced                                   : No

Text
ID                                       : 3
Format                                   : UTF-8
Codec ID                                 : S_TEXT/UTF8
Codec ID/Info                            : UTF-8 Plain Text
Duration                                 : 2 h 21 min
Bit rate                                 : 44 b/s
Count of elements                        : 1556
Stream size                              : 46.0 KiB (0%)
Default                                  : Yes
Forced                                   : No




 
 
 
 
 
 
 
 
 

Category:Movies > Bollywood
Lang:Hindi
Total Size:4.23 GB
Info Hash:2be431622dd40b18fc0a5ed4410ea634e8155028
Added By:Freaky
Date Added:18-11-2017 10:25:24
Downloads:489

Ratings:Not Yet Rated (Log in to rate it)


Tracker:
http://ipv4.tracker.harry.lu/announce

This Torrent also has backup trackers
URLSeedersLeechersCompleted
http://ipv4.tracker.harry.lu/announce62610
http://ipv4.tracker.harry.lu:80/announce62610
http://tracker.devil-torrents.pl:80/announce000
http://tracker.devil-torrents.pl/announce000
http://open.kickasstracker.com/announce020
http://open.kickasstracker.com:443/announce020


File List: 


Comments

No comments still posted

Top
Copyright 2018 DownloadHD -|- Page Generated In 0.264291 secs.
-|- RSS Feed -|- Feed Info
Season 3 Episode 18 Reunion (Part 2) | - 76% CE TÜV ROHS Zertifizierte Hoverboard self balancing scooter mit Samsung Akku 6,5 weiß | IMDb: 9 S4E10 Game Of Thrones - Season 4