Login
Username:
Password:
[Signup]
[Recover Account]


Browse Torrents

Poll


You must be logged in to view polls



Latest Torrents
Bumblebee 2018.NEW...
- [Size: 1.35 GB]

Seth.Meyers.2018.1...
- [Size: 582.88 MB]

Seth.Meyers.2018.1...
- [Size: 586.13 MB]

Seth.Meyers.2018.1...
- [Size: 801.04 MB]

18+.What.Keeps.You...
- [Size: 1.10 GB]


Torrent Details For "Zara Sambhal Ke (2014) Hindi 720p Web-HD AVC AAC Esub - Download"

Zara Sambhal Ke (2014) Hindi 720p Web-HD AVC AAC Esub - Download

Download this torrent | Magnet Download
Health:
Seeds: 0
Leechers: 13
Completed:
Last Checked: 08-02-2018 17:49:48
External Torrent
Update Stats



Images Host

Poster


Watch-Free-HD     Download

Details
Name:Zara Sambhal Ke (2014) Hindi 720p Web-HD AVC AAC Esub - Download
Description:
Zara Sambhal Ke (2014) Hindi 720p Web-HD AVC AAC Esub - Download.mkv
Format                                   : Matroska
Format version                           : Version 4 / Version 2
File size                                : 2.55 GiB
Duration                                 : 1 h 54 min
Overall bit rate                         : 3 171 kb/s


Video
ID                                       : 1
Format                                   : AVC
Format/Info                              : Advanced Video Codec
Format profile                           : [email protected]
Format settings, CABAC                   : Yes
Format settings, ReFrames                : 4 frames
Codec ID                                 : V_MPEG4/ISO/AVC
Duration                                 : 1 h 54 min
Bit rate                                 : 3 014 kb/s
Width                                    : 1 280 pixels
Height                                   : 720 pixels
Display aspect ratio                     : 16:9
Frame rate mode                          : Constant
Frame rate                               : 25.000 FPS
Color space                              : YUV
Chroma subsampling                       : 4:2:0
Bit depth                                : 8 bits
Scan type                                : Progressive
Bits/(Pixel*Frame)                       : 0.131
Stream size                              : 2.39 GiB (94%)
Writing library                          : x264 core 133 r2 a3ac64b
Encoding settings                        : cabac=1 / ref=3 / deblock=1:0:0 / analyse=0x3:0x113 / me=hex / subme=7 / psy=1 / psy_rd=1.00:0.00 / mixed_ref=1 / me_range=16 / chroma_me=1 / trellis=1 / 8x8dct=1 / cqm=0 / deadzone=21,11 / fast_pskip=1 / chroma_qp_offset=-2 / threads=24 / lookahead_threads=4 / sliced_threads=0 / nr=0 / decimate=1 / interlaced=0 / bluray_compat=0 / constrained_intra=0 / bframes=3 / b_pyramid=2 / b_adapt=1 / b_bias=0 / direct=1 / weightb=1 / open_gop=0 / weightp=2 / keyint=30 / keyint_min=3 / scenecut=40 / intra_refresh=0 / rc_lookahead=30 / rc=abr / mbtree=1 / bitrate=3014 / ratetol=1.0 / qcomp=0.60 / qpmin=0 / qpmax=69 / qpstep=4 / ip_ratio=1.40 / aq=1:1.00
Default                                  : Yes
Forced                                   : No

Audio
ID                                       : 2
Format                                   : AAC
Format/Info                              : Advanced Audio Codec
Format profile                           : LC
Codec ID                                 : A_AAC
Duration                                 : 1 h 54 min
Bit rate                                 : 192 kb/s
Channel(s)                               : 2 channels
Channel positions                        : Front: L R
Sampling rate                            : 48.0 kHz
Frame rate                               : 46.875 FPS (1024 spf)
Compression mode                         : Lossy
Delay relative to video                  : -43 ms
Stream size                              : 159 MiB (6%)
Language                                 : Hindi
Default                                  : Yes
Forced                                   : No

 
Category:Movies > Bollywood
Lang:Hindi
Total Size:2.55 GB
Info Hash:c04316354e7658664dc5f2a1ef35fb9f5c61014f
Added By:Unknown
Date Added:20-05-2017 20:09:51
Downloads:502

Ratings:Not Yet Rated (Log in to rate it)


Tracker:
udp://tracker.coppersurfer.tk:6969/announce


File List: 


Comments

No comments still posted

Top
Copyright 2018 DownloadHD -|- Page Generated In 0.950252 secs.
-|- RSS Feed -|- Feed Info
Freak Show | Softcore (62) | (Wk01) Star Wars Age Of Republic - Obi-Wan #1A - Preorder 2Nd Jan