Login
Username:
Password:
[Signup]
[Recover Account]


Browse Torrents

Poll


You must be logged in to view polls



Latest Torrents
Seth.Meyers.2018.1...
- [Size: 586.13 MB]

Seth.Meyers.2018.1...
- [Size: 801.04 MB]

18+.What.Keeps.You...
- [Size: 1.10 GB]

Dirty Boss (2016) ...
- [Size: 1.33 GB]

Weight.2018.HDRip....
- [Size: 1.35 GB]


Torrent Details For "Bareilly Ki Barfi 2017 720p Esub BluRay 5.1 Hindi GD @ TEAM ICTV"

Bareilly Ki Barfi 2017 720p Esub BluRay 5.1 Hindi GD @ TEAM ICTV

Download this torrent | Magnet Download
Health:
Seeds: 0
Leechers: 0
Completed: 68 
Last Checked: 07-12-2018 03:05:51
External Torrent
Update Stats



Images Host

Poster


iMDB
Imdb Picture Title: Bareilly Ki Barfi
Year: 2017
Runtime: 116 minutes
Votes: 40
Rating: 7.1/10
Language: Hindi
Country: India
All Genres: Comedy
Plot Outline: Set in the small-town of Bareilly, Bitti is a free-spirited young girl who lives life on her own terms and refuses to be pressured into getting married. Her life takes a shift when she meets Chirag Dubey and Pritam Vidrohi.
Director: Ashwiny Iyer Tiwari
Writing By: Bareilly Ki Barfi,Shreyas Jain,Nitesh Tiwari,
Produced By: Juno Chopra,Renu Chopra,Vineet Jain,Madhav Roy Kapur,Satish Mane,Priti Shahani,
Music: Sameer Uddin
Plot:

Set in the small-town of Bareilly, Bitti is a free-spirited young girl who lives life on her own terms and refuses to be pressured into getting married. Her life takes a shift when she meets Chirag Dubey and Pritam Vidrohi.


Cast:
Ayushmann Khurrana as Chirag Dubey
Kriti Sanon as Bitti Mishra
Rajkummar Rao as Pritam Vidrohi
Pankaj Tripathy as Narottam Mishra
Seema Pahwa as
Rohit Choudhary as Munna
Swati Semwal as Rama


Watch-Free-HD     Download

Details
Name:Bareilly Ki Barfi 2017 720p Esub BluRay 5.1 Hindi GD @ TEAM ICTV
Description:

Format                         : Matroska
Format version                 : Version 4 / Version 2
File size                      : 574 MiB
Duration                       : 1 h 55 min
Overall bit rate               : 694 kb/s
Movie name                     : Bareilly Ki Barfi 2017 GOPISAHI

Video
Format                         : AVC
Codec ID                       : V_MPEG4/ISO/AVC
Duration                       : 1 h 55 min
Bit rate                       : 600 kb/s
Width                          : 1 280 pixels
Height                         : 536 pixels
Display aspect ratio           : 2.40:1
Frame rate mode                : Constant
Frame rate                     : 24.000 FPS
Stream size                    : 496 MiB (87%)
Title                          : GOPISAHI
Writing library                : x264
Language                       : Hindi

Audio
Format                         : AAC
Duration                       : 1 h 55 min
Bit rate                       : 91.2 kb/s
Channel(s)                     : 6 channels
Channel positions              : Front: L C R, Side: L R, LFE
Sampling rate                  : 44.1 kHz
Frame rate                     : 43.066 FPS (1024 SPF)
Stream size                    : 75.4 MiB (13%)
Title                          : GOPISAHI
Language                       : Hindi


Text
Title                          : Bareilly Ki Barfi 2017 GOPISAHI
Language                       : English


Category:Movies > Bollywood
Lang:Hindi
Total Size:573.54 MB
Info Hash:fc9343c7503285ba07f32477e3593559ba7f8085
Added By:gopisahi
Date Added:13-11-2017 07:13:01
Downloads:612

Ratings:Not Yet Rated (Log in to rate it)


Tracker:
http://ipv4.tracker.harry.lu/announce

This Torrent also has backup trackers
URLSeedersLeechersCompleted
http://ipv4.tracker.harry.lu/announce10279
http://ipv4.tracker.harry.lu:80/announce10279
http://163.172.180.68:80/announce10279
http://t.nyaatracker.com/announce700
http://tracker.devil-torrents.pl:80/announce2700
http://tracker.devil-torrents.pl/announce2700
http://open.kickasstracker.com/announce000
http://163.172.180.68/announce10279
http://t.nyaatracker.com:80/announce700
http://retracker.mgts.by:80/announce0068
http://45.33.11.224/announce3710
http://tracker.torrentyorg.pl:80/announce500
http://pt.lax.mx:80/announce2189


File List: 


Comments

No comments still posted

Top
Copyright 2018 DownloadHD -|- Page Generated In 0.931264 secs.
-|- RSS Feed -|- Feed Info
enough sexy hd | Takeshi’s Castle | Finish-Fansub