Login
Username:
Password:
[Signup]
[Recover Account]


Browse Torrents

Poll


You must be logged in to view polls



Latest Torrents
Hunter.Killer.2018...
- [Size: 1.31 GB]

Hunter.Killer.2018...
- [Size: 1.31 GB]

A.Boy.A.Girl.A.Dre...
- [Size: 3.69 GB]

Christmas.Presence...
- [Size: 4.02 GB]

The.Case.That.Haun...
- [Size: 234.82 MB]


Torrent Details For "Jagga Jasoos 2017 1080p BluRay DD 5.1 x264"

Jagga Jasoos 2017 1080p BluRay DD 5.1 x264

Download this torrent | Magnet Download
Health:
Seeds: 0
Leechers: 4
Completed: 948 
Last Checked: 06-11-2018 06:42:56
External Torrent
Update Stats



Images Host

Poster


Watch-Free-HD     Download

Details
Name:Jagga Jasoos 2017 1080p BluRay DD 5.1 x264
Description:




General
Format                                   : Matroska
Format version                           : Version 4 / Version 2
File size                                : 3.24 GiB
Duration                                 : 2 h 41 min
Overall bit rate                         : 2 865 kb/s

Video
ID                                       : 1
Format                                   : AVC
Format/Info                              : Advanced Video Codec
Format profile                           : [email protected]
Format settings                          : CABAC / 4 Ref Frames
Format settings, CABAC                   : Yes
Format settings, RefFrames               : 4 frames
Codec ID                                 : V_MPEG4/ISO/AVC
Duration                                 : 2 h 41 min
Bit rate                                 : 2 500 kb/s
Width                                    : 1 920 pixels
Height                                   : 800 pixels
Display aspect ratio                     : 2.40:1
Frame rate mode                          : Constant
Frame rate                               : 24.000 FPS
Color space                              : YUV
Chroma subsampling                       : 4:2:0
Bit depth                                : 8 bits
Scan type                                : Progressive
Bits/(Pixel*Frame)                       : 0.068
Stream size                              : 2.80 GiB (87%)
Writing library                          : x264 core 148 r2643 5c65704
Language                                 : English
Default                                  : Yes
Forced                                   : No

Audio
ID                                       : 2
Format                                   : AC-3
Format/Info                              : Audio Coding 3
Format settings, Endianness              : Big
Codec ID                                 : A_AC3
Duration                                 : 2 h 41 min
Bit rate mode                            : Constant
Bit rate                                 : 384 kb/s
Channel(s)                               : 6 channels
Channel positions                        : Front: L C R, Side: L R, LFE
Sampling rate                            : 48.0 kHz
Frame rate                               : 31.250 FPS (1536 SPF)
Bit depth                                : 16 bits
Compression mode                         : Lossy
Stream size                              : 444 MiB (13%)
Service kind                             : Complete Main
Default                                  : Yes
Forced                                   : No












Category:Movies > Bollywood
Lang:Hindi
Total Size:3.24 GB
Info Hash:ec91ef446d6b753cc41b1f996a1329ea0f82a4ed
Added By:Freaky
Date Added:08-11-2017 18:14:03
Downloads:396

Ratings:Not Yet Rated (Log in to rate it)


Tracker:
http://ipv4.tracker.harry.lu/announce

This Torrent also has backup trackers
URLSeedersLeechersCompleted
http://ipv4.tracker.harry.lu/announce842
http://ipv4.tracker.harry.lu:80/announce842
http://tracker.devil-torrents.pl:80/announce1380
http://tracker.devil-torrents.pl/announce1380
http://open.kickasstracker.com/announce601
http://open.kickasstracker.com:443/announce611
http://tracker.devil-torrents.pl/announce1380


File List: 


Comments

No comments still posted

Top
Copyright 2018 DownloadHD -|- Page Generated In 1.527961 secs.
-|- RSS Feed -|- Feed Info
Kurozuka | NIKE ARDILLA - MAMA AKU INGIN PULANG | Die Wayside Schule