Login
Username:
Password:
[Signup]
[Recover Account]


Browse Torrents

Poll


You must be logged in to view polls



Latest Torrents
Blood.UK.S01E01E02...
- [Size: 387.18 MB]

Hero No Zero 3 (Ma...
- [Size: 638.09 MB]

Chalbaaz (2018) Sa...
- [Size: 699.80 MB]

Bodhon [2017] Beng...
- [Size: 583.86 MB]

Munni Metric Pass ...
- [Size: 591.77 MB]


Torrent Details For "Act Of Valor 2012 1080p BluRay Dual Audio Hindi DD 2.0 English 6CH Team Telly"

Act Of Valor 2012 1080p BluRay Dual Audio Hindi DD 2.0 English 6CH Team Telly

Download this torrent | Magnet Download
Health:
Seeds: 0
Leechers: 1
Completed:
Last Checked: 17-07-2018 17:56:37
External Torrent
Update Stats



Images Host

Poster
No poster


iMDB
Imdb Picture Title: Act of Valor
Year: 2012
Runtime: 110 minutes
Votes: 60869
Rating: 6.5/10
Language: English, Russian, Spanish
Country: USA
All Genres: Action, Adventure, Drama, Thriller, War
Plot Outline: An elite team of Navy SEALs embark on a covert mission to recover a kidnapped CIA agent.
Tagline: The only easy day was yesterday.
Director: Mike McCoy
Scott Waugh
Writing By: Kurt Johnstad,
Produced By: Jason Clark,Jason Colodne,Bert Ellis,Chris George,Greg Haggart,Bob Kaminski,Ryan Kavanaugh,Roman Kindrachuk,Max Leitman,Michael J. Mailis,Mike McCoy,Tran Thi Bich Ngoc,Jay Pollak,Jacob Rosenberg,Nicholas Simon,Lance Sloane,Captain Duncan Smith,Benjamin Statler,Dana Teslenko,Tucker Tooley,Scott Waugh,
Music: Nathan Furst
Cast:
Rorke Denver as Lieutenant Rorke
Dave as Chief Dave
Sonny as SO1 Sonny
Weimy as SO1 Weimy
Ray as SO1 Ray
Ajay as SO1 Ajay
Mikey as SO1 Mikey
Van D. as Senior Chief Otto
Katelyn as LT Lyons
Callaghan as Admiral Callaghan
Trailers:
U.S. Version
Super Bowl Spot
No. 2


Watch-Free-HD     Download

Details
Name:Act Of Valor 2012 1080p BluRay Dual Audio Hindi DD 2.0 English 6CH Team Telly
Description:

 

Movie Encode From Full BD/BDREMUX

Act Of Valor 2012 1080p BluRay Dual Audio Hindi DD 2.0 English 6CH Team TellyI

 Join Us Now FaceBook

 Org VCD Audio Source

Movie Name :  Act of Valor (2012)
IMDB Link :  www.imdb.com/title/tt1591479/
Runtime : 1.50 Min
Audio : English DD 5.1/Hindi ORG VCD DD 2.0(Titan Thanks)
Subtitle : English PGS/Subrip
Size : 4.16GB



 Sample Include in torrent


Video
ID                                       : 1
Format                                   : AVC
Format/Info                              : Advanced Video Codec
Format profile                           : [email protected]
Format settings                          : CABAC / 4 Ref Frames
Format settings, CABAC                   : Yes
Format settings, RefFrames               : 4 frames
Codec ID                                 : V_MPEG4/ISO/AVC
Duration                                 : 1 h 50 min
Bit rate                                 : 4 500 kb/s
Width                                    : 1 920 pixels
Height                                   : 804 pixels
Display aspect ratio                     : 2.40:1
Frame rate mode                          : Constant
Frame rate                               : 23.976 (24000/1001) FPS
Color space                              : YUV
Chroma subsampling                       : 4:2:0
Bit depth                                : 8 bits
Scan type                                : Progressive
Bits/(Pixel*Frame)                       : 0.122
Stream size                              : 3.46 GiB (83%)
Title                                    : Act Of Valor 2012 1080p BluRay Dual Audio Hindi DD 2.0 English 6CH Team Telly
Language                                 : English
Default                                  : Yes
Forced                                   : No
Color range                              : Limited
Color primaries                          : BT.709
Transfer characteristics                 : BT.709
Matrix coefficients                      : BT.709

Audio #1
ID                                       : 2
Format                                   : AC-3
Format/Info                              : Audio Coding 3
Codec ID                                 : A_AC3
Duration                                 : 1 h 50 min
Bit rate mode                            : Constant
Bit rate                                 : 640 kb/s
Channel(s)                               : 6 channels
Channel positions                        : Front: L C R, Side: L R, LFE
Sampling rate                            : 48.0 kHz
Frame rate                               : 31.250 FPS (1536 SPF)
Bit depth                                : 16 bits
Compression mode                         : Lossy
Stream size                              : 505 MiB (12%)
Title                                    : English-Org-Bluray-DD-5.1-640kbps
Language                                 : English
Service kind                             : Complete Main
Default                                  : Yes
Forced                                   : No

Audio #2
ID                                       : 3
Format                                   : AC-3
Format/Info                              : Audio Coding 3
Codec ID                                 : A_AC3
Duration                                 : 1 h 50 min
Bit rate mode                            : Constant
Bit rate                                 : 224 kb/s
Channel(s)                               : 2 channels
Channel positions                        : Front: L R
Sampling rate                            : 48.0 kHz
Frame rate                               : 31.250 FPS (1536 SPF)
Bit depth                                : 16 bits
Compression mode                         : Lossy
Stream size                              : 177 MiB (4%)
Title                                    : Hindi-Org-VCD-DD-2.0-224kbps
Language                                 : Hindi
Service kind                             : Complete Main
Default                                  : No
Forced                                   : No

Text #1
ID                                       : 4
Format                                   : PGS
Codec ID                                 : S_HDMV/PGS
Codec ID/Info                            : Picture based subtitle format used on BDs/HD-DVDs
Duration                                 : 1 h 49 min
Bit rate                                 : 37.0 kb/s
Count of elements                        : 2336
Stream size                              : 29.0 MiB (1%)
Title                                    : English-PGS-Subtitle
Language                                 : English
Default                                  : Yes
Forced                                   : No

Text #2
ID                                       : 5
Format                                   : UTF-8
Codec ID                                 : S_TEXT/UTF8
Codec ID/Info                            : UTF-8 Plain Text
Duration                                 : 1 h 45 min
Bit rate                                 : 54 b/s
Count of elements                        : 1163
Stream size                              : 42.1 KiB (0%)
Title                                    : English-SRT-Subtitle
Language                                 : English
Default                                  : No
Forced                                   : No

Menu
00:00:00.000                             : en:00:00:00.000
00:04:13.712                             : en:00:04:13.712
00:08:14.619                             : en:00:08:14.619
00:11:40.199                             : en:00:11:40.199
00:15:51.367                             : en:00:15:51.367
00:20:26.934                             : en:00:20:26.934
00:25:32.281                             : en:00:25:32.281
00:30:10.058                             : en:00:30:10.058
00:35:50.607                             : en:00:35:50.607
00:39:21.150                             : en:00:39:21.150
00:43:02.038                             : en:00:43:02.038
00:48:31.200                             : en:00:48:31.200
00:51:46.061                             : en:00:51:46.061
00:54:54.791                             : en:00:54:54.791
00:58:58.618                             : en:00:58:58.618
01:02:49.057                             : en:01:02:49.057
01:08:10.461                             : en:01:08:10.461
01:11:54.560                             : en:01:11:54.560
01:17:47.872                             : en:01:17:47.872
01:21:51.156                             : en:01:21:51.156
01:26:12.751                             : en:01:26:12.751
01:32:46.352                             : en:01:32:46.352
01:35:48.618                             : en:01:35:48.618
01:41:55.109                             : en:01:41:55.109




[size=27]Act of Valor (2012)[/size]


 
 
 
 
 
 
 
 
 
 

Category:Movies > Hollywood Dub
Lang:Hindi
Total Size:4.21 GB
Info Hash:ea2cf6af4b33afcf6317cd2e010ab5e96e9300aa
Added By:Sup2425
Date Added:08-11-2017 17:13:57
Downloads:182

Ratings:Not Yet Rated (Log in to rate it)


Tracker:
udp://inferno.demonoid.pw:3391/announce


File List: 


Comments

No comments still posted

Top
Copyright 2018 DownloadHD -|- Page Generated In 2.083270 secs.
-|- RSS Feed -|- Feed Info
STEG INS PARADIES WANDBILD auf Leinwand 4 Teile INSEL M40864 GÜNSTIG Billiger al | Tiger Mask W | MotorrĂ€der