Login
Username:
Password:
[Signup]
[Recover Account]


Browse Torrents

Poll


You must be logged in to view polls



Latest Torrents
Master.of.Arms.S01...
- [Size: 983.73 MB]

Master.of.Arms.S01...
- [Size: 326.47 MB]

Z.Nation.S05E07.WE...
- [Size: 601.09 MB]

Z.Nation.S05E07.72...
- [Size: 820.80 MB]

Dead Awake 2010 x2...
- [Size: 593.33 MB]


Torrent Details For "Despicable.Me.2.2013.2160p.BluRay.REMUX.HEVC.DTS-X.7.1-FGT"

Despicable.Me.2.2013.2160p.BluRay.REMUX.HEVC.DTS-X.7.1-FGT

Download this torrent | Magnet Download
Health:
Seeds: 0
Leechers: 24
Completed: 84 
Last Checked: 15-07-2018 06:49:05
External Torrent
Update Stats



Images Host

Poster
No poster


iMDB
Imdb Picture Title: Despicable Me 2
Year: 2013
Runtime: 98 minutes
Votes: 315759
Rating: 7.4/10
Language: English, Ukrainian
Country: USA, France, Japan
All Genres: Animation, Adventure, Comedy, Family, Sci-Fi
Plot Outline: When Gru, the world's most super-bad turned super-dad has been recruited by a team of officials to stop lethal muscle and a host of Gru's own, He has to fight back with new gadgetry, cars, and more minion madness.
Tagline: When the world needed a hero, they called a villain.
Director: Pierre Coffin
Chris Renaud
Writing By: Cinco Paul,Ken Daurio,
Produced By: Janet Healy,Christopher Meledandri,Robert Taylor,
Music: Heitor Pereira Pharrell Williams
Cast:
Steve Carell as Gru
Kristen Wiig as Lucy
Benjamin Bratt as Eduardo / El Macho
Miranda Cosgrove as Margo
Russell Brand as Dr. Nefario
Ken Jeong as Floyd
Steve Coogan as Silas
Elsie Fisher as Agnes
Dana Gaier as Edith
Moises Arias as Antonio
Trailers:
Version 3
Teaser #2


Watch-Free-HD     Download

Details
Name:Despicable.Me.2.2013.2160p.BluRay.REMUX.HEVC.DTS-X.7.1-FGT
Description:
 
 
 
 
 
 

Video #1
ID                                       : 1
Format                                   : HEVC
Format/Info                              : High Efficiency Video Coding
Format profile                           : Main [email protected]@High
Codec ID                                 : V_MPEGH/ISO/HEVC
Duration                                 : 1 h 37 min
Bit rate                                 : 30.7 Mb/s
Width                                    : 3 840 pixels
Height                                   : 2 160 pixels
Display aspect ratio                     : 16:9
Frame rate mode                          : Constant
Frame rate                               : 23.976 (24000/1001) FPS
Color space                              : YUV
Chroma subsampling                       : 4:2:0 (Type 2)
Bit depth                                : 10 bits
Bits/(Pixel*Frame)                       : 0.154
Stream size                              : 21.0 GiB (72%)
Title                                    : Despicable.Me.2.2013.2160p.BluRay.REMUX.HEVC.DTS-X.7.1-FGT
Default                                  : Yes
Forced                                   : No
Color range                              : Limited
Color primaries                          : BT.2020
Transfer characteristics                 : PQ
Matrix coefficients                      : BT.2020 non-constant
Mastering display color primaries        : R: x=0.680000 y=0.320000, G:  x=0.265000 y=0.690000, B: x=0.150000 y=0.060000, White point: x=0.312700  y=0.329000
Mastering display luminance              : min: 0.0050 cd/m2, max: 4000.0000 cd/m2
Maximum Content Light Level              : 994 cd/m2
Maximum Frame-Average Light Level        : 553 cd/m2

Video #2
ID                                       : 2
Format                                   : HEVC
Format/Info                              : High Efficiency Video Coding
Format profile                           : Main [email protected]@High
Codec ID                                 : V_MPEGH/ISO/HEVC
Duration                                 : 1 h 37 min
Bit rate                                 : 3 514 kb/s
Width                                    : 1 920 pixels
Height                                   : 1 080 pixels
Display aspect ratio                     : 16:9
Frame rate mode                          : Constant
Frame rate                               : 23.976 (24000/1001) FPS
Color space                              : YUV
Chroma subsampling                       : 4:2:0 (Type 2)
Bit depth                                : 10 bits
Bits/(Pixel*Frame)                       : 0.071
Stream size                              : 2.41 GiB (8%)
Title                                    : Despicable.Me.2.2013.2160p.BluRay.REMUX.HEVC.DTS-X.7.1-FGT
Default                                  : No
Forced                                   : No
Color range                              : Limited
Color primaries                          : BT.2020
Transfer characteristics                 : PQ
Matrix coefficients                      : BT.2020 non-constant
Mastering display color primaries        : R: x=0.680000 y=0.320000, G:  x=0.265000 y=0.690000, B: x=0.150000 y=0.060000, White point: x=0.312700  y=0.329000
Mastering display luminance              : min: 0.0050 cd/m2, max: 4000.0000 cd/m2

Audio #1
ID                                       : 3
Format                                   : DTS
Format/Info                              : Digital Theater Systems
Format profile                           : X / MA / Core
Codec ID                                 : A_DTS
Duration                                 : 1 h 37 min
Bit rate mode                            : Variable / Variable / Constant
Bit rate                                 : 6 239 kb/s / 6 239 kb/s / 1 509 kb/s
Channel(s)                               : Object Based / 8 channels / 6 channels
Channel positions                        : Object Based / Front: L C R, Side: L R, Back: L R, LFE / Front: L C R, Side: L R, LFE
Sampling rate                            :  / 48.0 kHz / 48.0 kHz
Frame rate                               : 93.750 FPS (512 SPF)
Bit depth                                :  / 24 bits / 24 bits
Compression mode                         :  / Lossless / Lossy
Stream size                              : 4.27 GiB (15%)
Title                                    : Despicable.Me.2.2013.2160p.BluRay.REMUX.HEVC.DTS-X.7.1-FGT
Language                                 : English
Default                                  : Yes
Forced                                   : No

Audio #2
ID                                       : 4
Format                                   : DTS
Format/Info                              : Digital Theater Systems
Codec ID                                 : A_DTS
Duration                                 : 1 h 37 min
Bit rate mode                            : Constant
Bit rate                                 : 255 kb/s
Channel(s)                               : 2 channels
Channel positions                        : Front: L R
Sampling rate                            : 48.0 kHz
Frame rate                               : 93.750 FPS (512 SPF)
Bit depth                                : 24 bits
Compression mode                         : Lossy
Stream size                              : 179 MiB (1%)
Title                                    : Despicable.Me.2.2013.2160p.BluRay.REMUX.HEVC.DTS-X.7.1-FGT
Language                                 : English
Default                                  : No
Forced                                   : No

Audio #3
ID                                       : 5
Format                                   : DTS
Format/Info                              : Digital Theater Systems
Codec ID                                 : A_DTS
Duration                                 : 1 h 37 min
Bit rate mode                            : Constant
Bit rate                                 : 768 kb/s
Channel(s)                               : 6 channels
Channel positions                        : Front: L C R, Side: L R, LFE
Sampling rate                            : 48.0 kHz
Frame rate                               : 93.750 FPS (512 SPF)
Bit depth                                : 24 bits
Compression mode                         : Lossy
Stream size                              : 538 MiB (2%)
Title                                    : Despicable.Me.2.2013.2160p.BluRay.REMUX.HEVC.DTS-X.7.1-FGT
Language                                 : Spanish
Default                                  : No
Forced                                   : No

Audio #4
ID                                       : 6
Format                                   : DTS
Format/Info                              : Digital Theater Systems
Codec ID                                 : A_DTS
Duration                                 : 1 h 37 min
Bit rate mode                            : Constant
Bit rate                                 : 768 kb/s
Channel(s)                               : 6 channels
Channel positions                        : Front: L C R, Side: L R, LFE
Sampling rate                            : 48.0 kHz
Frame rate                               : 93.750 FPS (512 SPF)
Bit depth                                : 24 bits
Compression mode                         : Lossy
Stream size                              : 538 MiB (2%)
Title                                    : Despicable.Me.2.2013.2160p.BluRay.REMUX.HEVC.DTS-X.7.1-FGT
Language                                 : French
Default                                  : No
Forced                                   : No

Audio #5
ID                                       : 7
Format                                   : AC-3
Format/Info                              : Audio Coding 3
Codec ID                                 : A_AC3
Duration                                 : 1 h 37 min
Bit rate mode                            : Constant
Bit rate                                 : 192 kb/s
Channel(s)                               : 2 channels
Channel positions                        : Front: L R
Sampling rate                            : 48.0 kHz
Frame rate                               : 31.250 FPS (1536 SPF)
Bit depth                                : 16 bits
Compression mode                         : Lossy
Delay relative to video                  : 15 ms
Stream size                              : 135 MiB (0%)
Title                                    : Despicable.Me.2.2013.2160p.BluRay.REMUX.HEVC.DTS-X.7.1-FGT
Language                                 : English
Service kind                             : Complete Main
Default                                  : No
Forced                                   : No

Text #1
ID                                       : 8
Format                                   : PGS
Muxing mode                              : zlib
Codec ID                                 : S_HDMV/PGS
Codec ID/Info                            : Picture based subtitle format used on BDs/HD-DVDs
Duration                                 : 1 h 33 min
Bit rate                                 : 35.4 kb/s
Count of elements                        : 2796
Stream size                              : 23.7 MiB (0%)
Title                                    : English-PGS
Language                                 : English
Default                                  : Yes
Forced                                   : No

Text #2
ID                                       : 9
Format                                   : PGS
Muxing mode                              : zlib
Codec ID                                 : S_HDMV/PGS
Codec ID/Info                            : Picture based subtitle format used on BDs/HD-DVDs
Duration                                 : 1 h 31 min
Bit rate                                 : 24.5 kb/s
Count of elements                        : 1832
Stream size                              : 16.1 MiB (0%)
Title                                    : Spanish-PGS
Language                                 : Spanish
Default                                  : No
Forced                                   : No

Text #3
ID                                       : 10
Format                                   : PGS
Muxing mode                              : zlib
Codec ID                                 : S_HDMV/PGS
Codec ID/Info                            : Picture based subtitle format used on BDs/HD-DVDs
Duration                                 : 1 h 29 min
Bit rate                                 : 26.4 kb/s
Count of elements                        : 1826
Stream size                              : 16.9 MiB (0%)
Title                                    : French-PGS
Language                                 : French
Default                                  : No
Forced                                   : No

Text #4
ID                                       : 11
Format                                   : PGS
Muxing mode                              : zlib
Codec ID                                 : S_HDMV/PGS
Codec ID/Info                            : Picture based subtitle format used on BDs/HD-DVDs
Duration                                 : 1 h 31 min
Bit rate                                 : 321 b/s
Count of elements                        : 30
Stream size                              : 215 KiB (0%)
Title                                    : Spanish-FORCED-PGS
Language                                 : Spanish
Default                                  : No
Forced                                   : No

Text #5
ID                                       : 12
Format                                   : PGS
Muxing mode                              : zlib
Codec ID                                 : S_HDMV/PGS
Codec ID/Info                            : Picture based subtitle format used on BDs/HD-DVDs
Duration                                 : 1 h 29 min
Bit rate                                 : 280 b/s
Count of elements                        : 24
Stream size                              : 184 KiB (0%)
Title                                    : French-FORCED-PGS
Language                                 : French
Default                                  : No
Forced                                   : No

Menu
00:00:00.000                             : en:Chapter 1
00:03:22.994                             : en:Chapter 2
00:08:04.734                             : en:Chapter 3
00:15:50.866                             : en:Chapter 4
00:18:28.232                             : en:Chapter 5
00:24:36.892                             : en:Chapter 6
00:30:50.723                             : en:Chapter 7
00:34:40.703                             : en:Chapter 8
00:40:48.279                             : en:Chapter 9
00:46:26.200                             : en:Chapter 10
00:51:23.121                             : en:Chapter 11
00:56:27.425                             : en:Chapter 12
01:00:00.471                             : en:Chapter 13
01:03:27.053                             : en:Chapter 14
01:08:44.078                             : en:Chapter 15
01:14:01.979                             : en:Chapter 16
01:18:08.058                             : en:Chapter 17
01:22:33.907                             : en:Chapter 18
01:27:09.098                             : en:Chapter 19
01:30:33.719                             : en:Chapter 20

Category:Movies > Remux
Lang:English  English
Total Size:29.07 GB
Info Hash:08d5678efe197e5637920429e75cda3f9cf5e1e9
Added By:Agent47
Date Added:08-11-2017 13:20:40
Downloads:151

Ratings:Not Yet Rated (Log in to rate it)


Tracker:
http://tracker.trackerfix.com:80/announce


File List: 


Comments

No comments still posted

Top
Copyright 2018 DownloadHD -|- Page Generated In 0.249706 secs.
-|- RSS Feed -|- Feed Info
American Crime | Vedi Prodotto | http://jgnktt.biz/38703/paul-weller-jawbone-music-from-the-film-2017