Login
Username:
Password:
[Signup]
[Recover Account]


Browse Torrents

Poll


You must be logged in to view polls



Latest Torrents
Hunter.Killer.2018...
- [Size: 1.31 GB]

Hunter.Killer.2018...
- [Size: 1.31 GB]

A.Boy.A.Girl.A.Dre...
- [Size: 3.69 GB]

Christmas.Presence...
- [Size: 4.02 GB]

The.Case.That.Haun...
- [Size: 234.82 MB]


Torrent Details For "Seven Beauties 1975 ITALIAN 1080p BRRip x264 AAC ESub-Download"

Seven Beauties 1975 ITALIAN 1080p BRRip x264 AAC ESub-Download

Download this torrent | Magnet Download
Health:
Seeds: 0
Leechers: 6
Completed:
Last Checked: 11-10-2018 20:27:10
External Torrent
Update Stats



Images Host

Poster


iMDB
Imdb Picture Original Title: Pasqualino Settebellezze
Title: Seven Beauties
Year: 1975
Runtime: 116 minutes
Votes: 3814
Rating: 8.0/10
Language: Italian, German, Neapolitan, Spanish
Country: Italy
All Genres: Comedy, Drama, War
Plot Outline: The defense of honor, a strong value in Neapolitan society, and his effects on the life of everyman Pasquale Frafuso.
Tagline: ...that's what they call him.
Director: Lina Wertmüller
Writing By: Lina Wertmüller,
Produced By: Arrigo Colombo,Lina Wertmüller,
Music: Enzo Jannacci
Cast:
Giancarlo Giannini as Pasqualino Frafuso aka Settebellezze
Fernando Rey as Pedro the Anarchist Prisoner
Shirley Stoler as The Prison Camp Commandant
Elena Fiore as Concettina, a Sister
Piero Di Iorio as Francesco - Pasqualino's comrade
Enzo Vitale as Don Raffaele
Roberto Herlitzka as Socialist
Lucio Amelio as Lawyer
Ermelinda De Felice as Pasqualino's Mother
Bianca D'Origlia as The Psychiatrist


Watch-Free-HD     Download

Details
Name:Seven Beauties 1975 ITALIAN 1080p BRRip x264 AAC ESub-Download
Description:
Seven Beauties 1975 ITALIAN 1080p BRRip x264 AAC ESub-Download


Format                      : Matroska
Format version              : Version 4 / Version 2
File size                   : 2.70 GiB
Duration                    : 1 h 56 min
Overall bit rate            : 3 322 kb/s
Movie name                  : Seven Beauties 1975-Download


Video
ID                          : 1
Format                      : AVC
Format/Info                 : Advanced Video Codec
Format profile              : [email protected]
Format settings, CABAC      : Yes
Format settings, ReFrames   : 4 frames
Codec ID                    : V_MPEG4/ISO/AVC
Duration                    : 1 h 56 min
Bit rate                    : 3 000 kb/s
Width                       : 1 920 pixels
Height                      : 1 040 pixels
Display aspect ratio        : 1.85:1
Frame rate mode             : Constant
Frame rate                  : 23.976 (24000/1001) FPS


Audio
ID                          : 2
Format                      : AAC
Format/Info                 : Advanced Audio Codec
Format profile              : LC
Codec ID                    : A_AAC
Duration                    : 1 h 56 min
Bit rate                    : 320 kb/s
Channel(s)                  : 2 channels
Channel positions           : Front: L R
Sampling rate               : 48.0 kHz
Frame rate                  : 46.875 FPS (1024 spf)
Compression mode            : Lossy
Delay relative to video     : 9 ms
Stream size                 : 267 MiB (10%)
Language                    : Italian
Default                     : Yes
Forced                      : No

Text
ID                          : 3
Format                      : UTF-8
Codec ID                    : S_TEXT/UTF8
Codec ID/Info               : UTF-8 Plain Text
Duration                    : 1 h 54 min
Bit rate                    : 40 b/s
Count of elements           : 1070
Stream size                 : 33.6 KiB (0%)
Language                    : English
Default                     : Yes
Forced                      : No

Menu
00:00:00.000                : en:00:00:00.000
00:09:51.674                : en:00:09:51.674
00:18:27.189                : en:00:18:27.189
00:27:53.755                : en:00:27:53.755
00:39:20.942                : en:00:39:20.942
00:48:29.406                : en:00:48:29.406
00:59:30.025                : en:00:59:30.025
01:12:10.159                : en:01:12:10.159
01:24:04.581                : en:01:24:04.581
01:41:26.414                : en:01:41:26.414

       
Category:Movies > 1080P Bluray
Lang:Italian  Italian
Total Size:2.70 GB
Info Hash:b8d7b8733ca45e02a5f64d8e8762de331f91dcd6
Added By:Download
Date Added:05-11-2017 09:54:06
Downloads:132

Ratings:Not Yet Rated (Log in to rate it)


Tracker:
http://ipv4.tracker.harry.lu/announce

This Torrent also has backup trackers
URLSeedersLeechersCompleted
http://ipv4.tracker.harry.lu/announce000
http://ipv4.tracker.harry.lu:80/announce000
http://t.nyaatracker.com/announce410
http://82.209.230.66/announce3113
http://open.kickasstracker.com/announce110
http://163.172.180.68/announce000
http://t.nyaatracker.com:80/announce410
http://retracker.mgts.by:80/announce3113
http://45.33.11.224/announce000
http://tracker.torrentyorg.pl:80/announce030
http://pt.lax.mx:80/announce000
http://103.3.63.11:80/announce410
http://fxtt.ru:80/announce000
http://tracker.electro-torrent.pl:80/announce030
http://tracker.torrentyorg.pl:80/announce030


File List: 


Comments

No comments still posted

Top
Copyright 2018 DownloadHD -|- Page Generated In 1.971683 secs.
-|- RSS Feed -|- Feed Info
Bitdefender Antivirus hack | Advertising | Communication - 1471 Words