Login
Username:
Password:
[Signup]
[Recover Account]


Browse Torrents

Poll


You must be logged in to view polls



Latest Torrents
Villain (2018) Ben...
- [Size: 558.96 MB]

Villain (2018) Ben...
- [Size: 1.49 GB]

Mirzapur (2018) Se...
- [Size: 3.39 GB]

The.Daily.Show.201...
- [Size: 311.67 MB]

How.to.Get.Away.wi...
- [Size: 1.17 GB]


Torrent Details For "Spider-Man Homecoming 2017 720p BluRay x264[Hindi (Org) - English ] - Download"

Spider-Man Homecoming 2017 720p BluRay x264[Hindi (Org) - English ] - Download

Download this torrent | Magnet Download
Health:
Seeds: 0
Leechers: 11
Completed:
Last Checked: 22-04-2018 20:31:54
External Torrent
Update Stats



Images Host

Poster


iMDB
Imdb Picture Title: Spider-Man: Homecoming
Year: 2017
Runtime: 133 minutes
Votes: 14742
Rating: 8.3/10
Language: English
Country: USA
All Genres: Action, Adventure, Sci-Fi
Plot Outline: Several months after the events of Captain America: Civil War, Peter Parker, with the help of his mentor Tony Stark, tries to balance his life as an ordinary high school student in Queens, New York City while fighting crime as his superhero alter ego Spider-Man as a new threat, the Vulture, emerges.
Director: Jon Watts
Writing By: Jonathan Goldstein,John Francis Daley,Jon Watts,Christopher Ford,Chris McKenna,Erik Sommers,Jonathan Goldstein,John Francis Daley,Stan Lee,Steve Ditko,
Produced By: Victoria Alonso,Avi Arad,Mitchell Bell,Eric Hauserman Carroll,Louis D'Esposito,Kevin Feige,Jeremy Latcham,Stan Lee,Rachel O'Connor,Amy Pascal,Matt Tolmach,Patricia Whitcher,
Music: Michael Giacchino
Plot:

Thrilled by his experience with the Avengers, Peter returns home, where he lives with his Aunt May, under the watchful eye of his new mentor Tony Stark, Peter tries to fall back into his normal daily routine - distracted by thoughts of proving himself to be more than just your friendly neighborhood Spider-Man - but when the Vulture emerges as a new villain, everything that Peter holds most important will be threatened.

- Written by Benett Sullivan

Peter Parker is exploring the concept of becoming an Avenger. Tony Stark tries to help Peter, but he does not have total faith in Spider-Man to become a hero. And so Peter Parker, aka Spider-Man sets off to prove he is worthy to become an Avenger!

- Written by David Norton

A young Peter Parker/Spider-Man begins to navigate his newfound identity as the web-slinging super hero Spider-Man. Thrilled by his experience with the Avengers, Peter returns home, where he lives with his Aunt May, under the watchful eye of his new mentor Tony Stark. Peter tries to fall back into his normal daily routine - distracted by thoughts of proving himself to be more than just your friendly neighborhood Spider-Man - but when the Vulture emerges as a new villain, everything that Peter holds most important will be threatened.

- Written by Flick Direct

Several months after the events of Captain America: Civil War, Peter Parker, with the help of his mentor Tony Stark, tries to balance his life as an ordinary high school student in Queens, New York City while fighting crime as his superhero alter ego Spider-Man as a new threat, the Vulture, emerges.


Cast:
Tom Holland as Peter Parker / Spider-Man
Michael Keaton as Adrian Toomes / Vulture
Robert Downey Jr. as Tony Stark / Iron Man
Marisa Tomei as May Parker
Jon Favreau as Happy Hogan
Gwyneth Paltrow as Pepper Potts
Zendaya as Michelle
Donald Glover as Aaron Davis
Jacob Batalon as Ned
Laura Harrier as Liz
Trailers:
Trailer With Commentary
Spiderman Homecoming
IMDb Exclusive
International Trailer #3
Trailer #3
Trailer #2
Trailer #1


Watch-Free-HD     Download

Details
Name:Spider-Man Homecoming 2017 720p BluRay x264[Hindi (Org) - English ] - Download
Description:
Format                      : Matroska
Format version              : Version 4 / Version 2
File size                   : 2.60 GiB
Duration                    : 2 h 13 min
Overall bit rate            : 2 790 kb/s
Movie name                  : Spider-Man Homecoming 2017- [email protected] @ Download

Video
ID                          : 1
Format                      : AVC
Format/Info                 : Advanced Video Codec
Format profile              : [email protected]
Format settings, CABAC      : Yes
Format settings, RefFrames  : 8 frames
Codec ID                    : V_MPEG4/ISO/AVC
Duration                    : 2 h 13 min
Bit rate                    : 2 084 kb/s
Width                       : 1 280 pixels
Height                      : 536 pixels
Display aspect ratio        : 2.40:1
Frame rate mode             : Constant
Frame rate                  : 23.976 (24000/1001) FPS

Audio #1
ID                          : 2
Format                      : AC-3
Format/Info                 : Audio Coding 3
Format settings, Endianness : Big
Codec ID                    : A_AC3
Duration                    : 2 h 13 min
Bit rate mode               : Constant
Bit rate                    : 448 kb/s
Channel(s)                  : 6 channels
Channel positions           : Front: L C R, Side: L R, LFE
Sampling rate               : 48.0 kHz
Frame rate                  : 31.250 FPS (1536 SPF)
Bit depth                   : 16 bits
Compression mode            : Lossy
Stream size                 : 428 MiB (16%)
Language                    : Hindi

Audio #2
ID                          : 3
Format                      : AAC
Format/Info                 : Advanced Audio Codec
Format profile              : LC
Codec ID                    : A_AAC
Duration                    : 2 h 13 min
Bit rate                    : 256 kb/s
Channel(s)                  : 6 channels
Channel positions           : Front: L C R, Side: L R, LFE
Sampling rate               : 48.0 kHz
Frame rate                  : 46.875 FPS (1024 SPF)
Compression mode            : Lossy
Delay relative to video     : 9 ms
Stream size                 : 244 MiB (9%)
Language                    : English


Text
ID                          : 4
Format                      : UTF-8
Codec ID                    : S_TEXT/UTF8
Codec ID/Info               : UTF-8 Plain Text
Duration                    : 2 h 13 min
Bit rate                    : 69 b/s
Count of elements           : 1928
Stream size                 : 67.4 KiB (0%)
Language                    : English
Default                     : Yes
Forced                      : No

Menu
00:00:00.000                : :Chapter 01
00:05:34.084                : :Chapter 02
00:14:24.280                : :Chapter 03
00:20:51.000                : :Chapter 04
00:26:19.244                : :Chapter 05
00:36:27.977                : :Chapter 06
00:46:03.928                : :Chapter 07
00:54:40.194                : :Chapter 08
01:05:10.281                : :Chapter 09
01:12:03.277                : :Chapter 10
01:20:20.190                : :Chapter 11
01:29:41.543                : :Chapter 12
01:36:56.894                : :Chapter 13
01:44:44.153                : :Chapter 14
01:50:31.250                : :Chapter 15
01:57:53.566                : :Chapter 16

Original BD50 Untouched Audio : Credit goes to Rohit







Category:Movies > Hollywood Dub
Lang:Hindi
Total Size:2.62 GB
Info Hash:c0202028f19687d3143ba8e7d1459fa7163ac64f
Added By:Download
Date Added:03-11-2017 19:35:14
Downloads:101

Ratings:Not Yet Rated (Log in to rate it)


Tracker:
http://ipv4.tracker.harry.lu/announce

This Torrent also has backup trackers
URLSeedersLeechersCompleted
http://ipv4.tracker.harry.lu/announce230
http://ipv4.tracker.harry.lu:80/announce230
http://t.nyaatracker.com/announce010
http://82.209.230.66/announce030
http://open.kickasstracker.com/announce100
http://163.172.180.68/announce230
http://t.nyaatracker.com:80/announce010
http://retracker.mgts.by:80/announce030
http://45.33.11.224/announce1944
http://tracker.torrentyorg.pl:80/announce020
http://pt.lax.mx:80/announce1420
http://103.3.63.11:80/announce230
http://fxtt.ru:80/announce010
http://tracker.electro-torrent.pl:80/announce020
http://tracker.torrentyorg.pl:80/announce020


File List: 


Comments

No comments still posted

Top
Copyright 2018 DownloadHD -|- Page Generated In 1.365268 secs.
-|- RSS Feed -|- Feed Info