Login
Username:
Password:
[Signup]
[Recover Account]


Browse Torrents

Poll


You must be logged in to view polls



Latest Torrents
Hunter.Killer.2018...
- [Size: 1.31 GB]

Hunter.Killer.2018...
- [Size: 1.31 GB]

A.Boy.A.Girl.A.Dre...
- [Size: 3.69 GB]

Christmas.Presence...
- [Size: 4.02 GB]

The.Case.That.Haun...
- [Size: 234.82 MB]


Torrent Details For "What the Fish 2013 720p WEB-HD x264 AAC 2.0"

What the Fish 2013 720p WEB-HD x264 AAC 2.0

Download this torrent | Magnet Download
Health:
Seeds: 0
Leechers: 7
Completed:
Last Checked: 03-06-2018 17:11:03
External Torrent
Update Stats



Images Host

Poster


Watch-Free-HD     Download

Details
Name:What the Fish 2013 720p WEB-HD x264 AAC 2.0
Description:




General
Format                                   : Matroska
Format version                           : Version 4 / Version 2
File size                                : 900 MiB
Duration                                 : 1 h 35 min
Overall bit rate                         : 1 316 kb/s

Video
ID                                       : 1
Format                                   : AVC
Format/Info                              : Advanced Video Codec
Format profile                           : [email protected]
Format settings                          : CABAC / 4 Ref Frames
Format settings, CABAC                   : Yes
Format settings, RefFrames               : 4 frames
Codec ID                                 : V_MPEG4/ISO/AVC
Duration                                 : 1 h 35 min
Bit rate                                 : 1 200 kb/s
Width                                    : 1 280 pixels
Height                                   : 568 pixels
Display aspect ratio                     : 2.25:1
Frame rate mode                          : Constant
Frame rate                               : 25.000 FPS
Color space                              : YUV
Chroma subsampling                       : 4:2:0
Bit depth                                : 8 bits
Scan type                                : Progressive
Bits/(Pixel*Frame)                       : 0.066
Stream size                              : 811 MiB (90%)
Writing library                          : x264 core 148 r2643 5c65704
Default                                  : Yes
Forced                                   : No

Audio
ID                                       : 2
Format                                   : AAC
Format/Info                              : Advanced Audio Codec
Format profile                           : LC
Codec ID                                 : A_AAC-2
Duration                                 : 1 h 35 min
Bit rate                                 : 128 kb/s
Channel(s)                               : 2 channels
Channel positions                        : Front: L R
Sampling rate                            : 44.1 kHz
Frame rate                               : 43.066 FPS (1024 SPF)
Compression mode                         : Lossy
Stream size                              : 87.6 MiB (10%)
Language                                 : Hindi
Default                                  : Yes
Forced                                   : No












Category:Movies > Bollywood
Lang:Hindi
Total Size:900.34 MB
Info Hash:bba973ae90cbbbaf7dfbd903e57c3a1f44f11398
Added By:Freaky
Date Added:03-11-2017 09:27:05
Downloads:327

Ratings:Not Yet Rated (Log in to rate it)


Tracker:
udp://tracker.leechers-paradise.org:6969/announce

This Torrent also has backup trackers
URLSeedersLeechersCompleted
http://163.172.180.68/announce72515
http://tracker.trackerfix.com:80/announce000
http://ipv4.tracker.harry.lu/announce72515
http://ipv4.tracker.harry.lu:80/announce72515
http://open.kickasstracker.com/announce7250


File List: 


Comments

No comments still posted

Top
Copyright 2018 DownloadHD -|- Page Generated In 3.435404 secs.
-|- RSS Feed -|- Feed Info
Kindle Cloud Reader | ├ępisode 9 Rock in the Road | Ver Cobra Kai (2018) Online