Login
Username:
Password:
[Signup]
[Recover Account]


Browse Torrents

Poll


You must be logged in to view polls



Latest Torrents
Tigers (2018) Hind...
- [Size: 698.80 MB]

Real.Country.S01E0...
- [Size: 579.76 MB]

Padmaavat.2018 72...
- [Size: 2.99 GB]

TMZ.on.TV.2018.11....
- [Size: 160.78 MB]

New.Amsterdam.2018...
- [Size: 217.38 MB]


Torrent Details For "Assassins.Creed.2016.2160p.BluRay.x264.8bit.SDR.DTS-HD.MA.TrueHD.7.1.Atmos-SWTYBLZ"

Assassins.Creed.2016.2160p.BluRay.x264.8bit.SDR.DTS-HD.MA.TrueHD.7.1.Atmos-SWTYBLZ

Download this torrent | Magnet Download
Health:
Seeds: 0
Leechers: 8
Completed:
Last Checked: 28-10-2017 10:47:15
External Torrent
Update Stats



Images Host

Poster


iMDB
Imdb Picture Title: Assassin's Creed
Year: 2016
Runtime: 115 minutes
Votes: 105270
Rating: 6.0/10
Language: English, Spanish
Country: UK, France, Malta, USA, Taiwan, Canada, Hong Kong
All Genres: Action, Adventure, Drama, Fantasy, Sci-Fi
Plot Outline: When Callum Lynch explores the memories of his ancestor Aguilar and gains the skills of a Master Assassin, he discovers he is a descendant of the secret Assassins society.
Tagline: Your destiny is in your blood
Director: Justin Kurzel
Writing By: Michael Lesslie,Adam Cooper,Bill Collage,Patrick Désilets,Corey May,Jade Raymond,
Produced By: Markus Barmettler,Jean-Julien Baronnet,Chris Brigham,Christine Burgess-Quémard,Patrick Crowley,Jean de Rivieres,Daniel Emmerson,Michael Fassbender,Gerard Guillemot,Serge Hascoet,Philip Lee,Frank Marshall,Conor McCaughan,Arnon Milchan,Alex Taylor,Richard Whelan,
Music: Jed Kurzel
Plot:

Through Abstergo a company that creates a revolutionary technology that unlocks his genetic memories, Callum Lynch (Michael Fassbender) experiences the memories of his ancestor, Aguilar de Nerha (Aguilar Of Nerha), in 15th Century Spain. Callum discovers he is descended from a mysterious secret society, the Assassins and Templars, and amasses incredible knowledge and skills to take on the oppressive and powerful Templar organization in the present day.

- Written by 20th Century Fox

This is the quest of the Templars searching the mysterious relic called 'the apple of Eden' which holds the key to controlling mankind's free will itself and an assassin's attempt to stop them.

- Written by Keith Francis

A man named Callum Lynch is sentenced to death by lethal injection in Texas. However, the Abstergo Company fakes his death and Callum is brought to the headquarter in Madrid, Spain. Callum meets the CEO Alan Rikkin and learns that he is a descendant of members from the Assassin's Creed, a brotherhood that protects the Apple from the Templars. The Apple is a device that contains the genetic code for free will and the Templars may dominate the humans if they find where The Apple is hidden. Callum is submitted to the Animus, a machine developed by Rikkin's daughter Sofia to relive genetic memories and find where the Apple is. Along the experiment with the Animus, Callum meets his mother and other Assassin's Creed and embraces their cause. But Rikkin, who is a Templar, has retrieved the Apple. What will Callum do?

- Written by Claudio Carvalho, Rio de Janeiro, Brazil

When Callum Lynch explores the memories of his ancestor Aguilar and gains the skills of a Master Assassin, he discovers he is a descendant of the secret Assassins society.

- Written by Polly_Kat
Cast:
Michael Fassbender as Cal Lynch / Aguilar
Marion Cotillard as Sofia
Jeremy Irons as Rikkin
Brendan Gleeson as Joseph Lynch
Charlotte Rampling as Ellen Kaye
Michael Kenneth Williams as Moussa
Denis Ménochet as McGowan
Ariane Labed as Maria
Khalid Abdalla as Sultan Muhammad XII
Essie Davis as Cal's Mother
Trailers:
Trailer #2
Trailer #1


Watch-Free-HD     Download

Details
Name:Assassins.Creed.2016.2160p.BluRay.x264.8bit.SDR.DTS-HD.MA.TrueHD.7.1.Atmos-SWTYBLZ
Description:
SWEATY BALLZ presents

Assassins.Creed.2016.2160p.BluRay.x264.8bit.SDR.DTS-HD.MA.TrueHD.7.1.Atmos-SWTYBLZ

Converted from 10 bit HDR to 8 bit SDR using tripple mixed Hable-Reinhard-JJ per scene+frame analysis algorithm

 
 
 
 
 
 




Video
ID                                       : 1
Format                                   : AVC
Format/Info                              : Advanced Video Codec
Format profile                           : [email protected]
Format settings, CABAC                   : Yes
Format settings, ReFrames                : 5 frames
Codec ID                                 : V_MPEG4/ISO/AVC
Duration                                 : 1 h 55 min
Bit rate                                 : 17.4 Mb/s
Width                                    : 3 840 pixels
Height                                   : 1 608 pixels
Display aspect ratio                     : 2.40:1
Frame rate mode                          : Constant
Frame rate                               : 23.976 (24000/1001) FPS
Color space                              : YUV
Chroma subsampling                       : 4:2:0
Bit depth                                : 8 bits
Scan type                                : Progressive
Bits/(Pixel*Frame)                       : 0.118
Stream size                              : 14.1 GiB (61%)
Title                                    : Assassins.Creed.2016.2160p.BluRay.x264.8bit.SDR.DTS-HD.MA.TrueHD.7.1.Atmos-SWTYBLZ
Writing library                          : x264 core 148 r2748 97eaef2
Encoding settings                        : cabac=1 / ref=5 /  deblock=1:-1:-1 / analyse=0x3:0x113 / me=umh / subme=10 / psy=1 /  psy_rd=1.00:0.15 / mixed_ref=1 / me_range=48 / chroma_me=1 / trellis=2 /  8x8dct=1 / cqm=0 / deadzone=21,11 / fast_pskip=1 / chroma_qp_offset=-3 /  threads=50 / lookahead_threads=4 / sliced_threads=0 / nr=0 / decimate=0  / interlaced=0 / bluray_compat=0 / constrained_intra=0 / bframes=3 /  b_pyramid=2 / b_adapt=2 / b_bias=0 / direct=3 / weightb=1 / open_gop=0 /  weightp=2 / keyint=250 / keyint_min=23 / scenecut=40 / intra_refresh=0 /  rc_lookahead=50 / rc=crf / mbtree=1 / crf=18.0 / qcomp=0.60 / qpmin=0 /  qpmax=69 / qpstep=4 / ip_ratio=1.40 / aq=1:1.00
Language                                 : English
Default                                  : Yes
Forced                                   : No

Audio #1
ID                                       : 2
Format                                   : TrueHD
Format profile                           : TrueHD+Atmos / TrueHD
Codec ID                                 : A_TRUEHD
Duration                                 : 1 h 55 min
Bit rate mode                            : Variable
Bit rate                                 : 5 896 kb/s
Maximum bit rate                         : 9 129 kb/s
Channel(s)                               : Object Based / 8 channels
Channel positions                        : Object Based / Front: L C R, Side: L R, Back: L R, LFE
Sampling rate                            :  / 48.0 kHz
Frame rate                               : 1 200.000 FPS (40 spf)
Compression mode                         : Lossless
Delay relative to video                  : 32 ms
Stream size                              : 4.76 GiB (21%)
Title                                    : Assassins.Creed.2016.2160p.BluRay.x264.8bit.SDR.DTS-HD.MA.TrueHD.7.1.Atmos-SWTYBLZ
Language                                 : English
Default                                  : Yes
Forced                                   : No

Audio #2
ID                                       : 3
Format                                   : DTS
Format/Info                              : Digital Theater Systems
Format profile                           : MA / Core
Mode                                     : 16
Format settings, Endianness              : Big
Codec ID                                 : A_DTS
Duration                                 : 1 h 55 min
Bit rate mode                            : Variable / Constant
Bit rate                                 : 4 333 kb/s / 1 509 kb/s
Channel(s)                               : 8 channels / 6 channels
Channel positions                        : Front: L C R, Side: L R, Back: L R, LFE / Front: L C R, Side: L R, LFE
Sampling rate                            : 48.0 kHz
Frame rate                               : 93.750 FPS (512 spf)
Bit depth                                : 24 bits
Compression mode                         : Lossless / Lossy
Stream size                              : 3.50 GiB (15%)
Title                                    : Assassins.Creed.2016.2160p.BluRay.x264.8bit.SDR.DTS-HD.MA.TrueHD.7.1.Atmos-SWTYBLZ
Language                                 : English
Default                                  : No
Forced                                   : No

Audio #3
ID                                       : 4
Format                                   : AC-3
Format/Info                              : Audio Coding 3
Format settings, Endianness              : Big
Codec ID                                 : A_AC3
Duration                                 : 1 h 55 min
Bit rate mode                            : Constant
Bit rate                                 : 640 kb/s
Channel(s)                               : 6 channels
Channel positions                        : Front: L C R, Side: L R, LFE
Sampling rate                            : 48.0 kHz
Frame rate                               : 31.250 FPS (1536 spf)
Bit depth                                : 16 bits
Compression mode                         : Lossy
Delay relative to video                  : 32 ms
Stream size                              : 529 MiB (2%)
Title                                    : Assassins.Creed.2016.2160p.BluRay.x264.8bit.SDR.DTS-HD.MA.TrueHD.7.1.Atmos-SWTYBLZ
Language                                 : English
Service kind                             : Complete Main
Default                                  : No
Forced                                   : No

Text #1
ID                                       : 5
Format                                   : UTF-8
Codec ID                                 : S_TEXT/UTF8
Codec ID/Info                            : UTF-8 Plain Text
Duration                                 : 1 h 42 min
Bit rate                                 : 25 b/s
Count of elements                        : 723
Stream size                              : 19.2 KiB (0%)
Title                                    : English-SRT
Language                                 : English
Default                                  : Yes
Forced                                   : No

Text #2
ID                                       : 6
Format                                   : PGS
Muxing mode                              : zlib
Codec ID                                 : S_HDMV/PGS
Codec ID/Info                            : Picture based subtitle format used on BDs/HD-DVDs
Duration                                 : 1 h 42 min
Bit rate                                 : 18.2 kb/s
Count of elements                        : 1762
Stream size                              : 13.3 MiB (0%)
Title                                    : English-PGS
Language                                 : English
Default                                  : No
Forced                                   : No

Text #3
ID                                       : 7
Format                                   : PGS
Muxing mode                              : zlib
Codec ID                                 : S_HDMV/PGS
Codec ID/Info                            : Picture based subtitle format used on BDs/HD-DVDs
Duration                                 : 1 h 53 min
Bit rate                                 : 11.8 kb/s
Count of elements                        : 1136
Stream size                              : 9.58 MiB (0%)
Title                                    : Spanish-PGS
Language                                 : Spanish
Default                                  : No
Forced                                   : No

Text #4
ID                                       : 8
Format                                   : PGS
Muxing mode                              : zlib
Codec ID                                 : S_HDMV/PGS
Codec ID/Info                            : Picture based subtitle format used on BDs/HD-DVDs
Duration                                 : 1 h 54 min
Bit rate                                 : 12.7 kb/s
Count of elements                        : 1378
Stream size                              : 10.4 MiB (0%)
Title                                    : French-PGS
Language                                 : French
Default                                  : No
Forced                                   : No

Text #5
ID                                       : 9
Format                                   : PGS
Muxing mode                              : zlib
Codec ID                                 : S_HDMV/PGS
Codec ID/Info                            : Picture based subtitle format used on BDs/HD-DVDs
Duration                                 : 1 h 54 min
Bit rate                                 : 11.3 kb/s
Count of elements                        : 1150
Stream size                              : 9.24 MiB (0%)
Title                                    : Spanish-PGS
Language                                 : Spanish
Default                                  : No
Forced                                   : No

Text #6
ID                                       : 10
Format                                   : PGS
Muxing mode                              : zlib
Codec ID                                 : S_HDMV/PGS
Codec ID/Info                            : Picture based subtitle format used on BDs/HD-DVDs
Duration                                 : 1 h 54 min
Bit rate                                 : 13.4 kb/s
Count of elements                        : 1188
Stream size                              : 10.9 MiB (0%)
Title                                    : Danish-PGS
Language                                 : Danish
Default                                  : No
Forced                                   : No

Text #7
ID                                       : 11
Format                                   : PGS
Muxing mode                              : zlib
Codec ID                                 : S_HDMV/PGS
Codec ID/Info                            : Picture based subtitle format used on BDs/HD-DVDs
Duration                                 : 1 h 54 min
Bit rate                                 : 13.4 kb/s
Count of elements                        : 1222
Stream size                              : 10.9 MiB (0%)
Title                                    : Dutch-PGS
Language                                 : Dutch
Default                                  : No
Forced                                   : No

Text #8
ID                                       : 12
Format                                   : PGS
Muxing mode                              : zlib
Codec ID                                 : S_HDMV/PGS
Codec ID/Info                            : Picture based subtitle format used on BDs/HD-DVDs
Duration                                 : 1 h 53 min
Bit rate                                 : 12.9 kb/s
Count of elements                        : 1324
Stream size                              : 10.5 MiB (0%)
Title                                    : Finnish-PGS
Language                                 : Finnish
Default                                  : No
Forced                                   : No

Text #9
ID                                       : 13
Format                                   : PGS
Muxing mode                              : zlib
Codec ID                                 : S_HDMV/PGS
Codec ID/Info                            : Picture based subtitle format used on BDs/HD-DVDs
Duration                                 : 1 h 54 min
Bit rate                                 : 15.6 kb/s
Count of elements                        : 1314
Stream size                              : 12.7 MiB (0%)
Title                                    : German-PGS
Language                                 : German
Default                                  : No
Forced                                   : No

Text #10
ID                                       : 14
Format                                   : PGS
Muxing mode                              : zlib
Codec ID                                 : S_HDMV/PGS
Codec ID/Info                            : Picture based subtitle format used on BDs/HD-DVDs
Duration                                 : 1 h 54 min
Bit rate                                 : 14.4 kb/s
Count of elements                        : 1328
Stream size                              : 11.7 MiB (0%)
Title                                    : Italian-PGS
Language                                 : Italian
Default                                  : No
Forced                                   : No

Text #11
ID                                       : 15
Format                                   : PGS
Muxing mode                              : zlib
Codec ID                                 : S_HDMV/PGS
Codec ID/Info                            : Picture based subtitle format used on BDs/HD-DVDs
Duration                                 : 1 h 54 min
Bit rate                                 : 13.6 kb/s
Count of elements                        : 1328
Stream size                              : 11.1 MiB (0%)
Title                                    : Norwegian-PGS
Language                                 : Norwegian
Default                                  : No
Forced                                   : No

Text #12
ID                                       : 16
Format                                   : PGS
Muxing mode                              : zlib
Codec ID                                 : S_HDMV/PGS
Codec ID/Info                            : Picture based subtitle format used on BDs/HD-DVDs
Duration                                 : 1 h 54 min
Bit rate                                 : 13.8 kb/s
Count of elements                        : 1326
Stream size                              : 11.2 MiB (0%)
Title                                    : Swedish-PGS
Language                                 : Swedish
Default                                  : No
Forced                                   : No

Text #13
ID                                       : 17
Format                                   : PGS
Muxing mode                              : zlib
Codec ID                                 : S_HDMV/PGS
Codec ID/Info                            : Picture based subtitle format used on BDs/HD-DVDs
Duration                                 : 1 h 18 min
Bit rate                                 : 1 426 b/s
Count of elements                        : 192
Stream size                              : 821 KiB (0%)
Title                                    : English-FORCED-PGS
Language                                 : English
Default                                  : No
Forced                                   : No

Menu
00:00:00.000                             : en:Chapter 1
00:06:04.155                             : en:Chapter 2
00:09:32.697                             : en:Chapter 3
00:12:47.516                             : en:Chapter 4
00:16:47.715                             : en:Chapter 5
00:21:07.432                             : en:Chapter 6
00:26:56.448                             : en:Chapter 7
00:31:55.079                             : en:Chapter 8
00:38:06.284                             : en:Chapter 9
00:41:43.167                             : en:Chapter 10
00:46:33.040                             : en:Chapter 11
00:50:10.257                             : en:Chapter 12
00:53:04.389                             : en:Chapter 13
00:56:17.624                             : en:Chapter 14
00:59:26.479                             : en:Chapter 15
01:02:32.582                             : en:Chapter 16
01:06:37.034                             : en:Chapter 17
01:13:08.759                             : en:Chapter 18
01:18:45.887                             : en:Chapter 19
01:23:01.101                             : en:Chapter 20
01:30:17.995                             : en:Chapter 21
01:34:18.194                             : en:Chapter 22
01:37:45.192                             : en:Chapter 23
01:40:51.003                             : en:Chapter 24
Category:Movies > 4K/UHD
Lang:English  English
Total Size:23.17 GB
Info Hash:76adaad673f2cbc15f62fe6f37df47cd88fdc86e
Added By:Agent47
Date Added:28-10-2017 10:47:15
Downloads:155

Ratings:Not Yet Rated (Log in to rate it)


Tracker:
http://tracker.trackerfix.com:80/announce


File List: 


Comments

No comments still posted

Top
Copyright 2018 DownloadHD -|- Page Generated In 0.328867 secs.
-|- RSS Feed -|- Feed Info
Dragon Ball – Bảy Viên Ngọc Rồng chap 519 | Free (basic)9 | (Wk49) The Walking Dead #186A - Preorder 5Th Dec