Login
Username:
Password:
[Signup]
[Recover Account]


Browse Torrents

Poll


You must be logged in to view polls



Latest Torrents
James.Corden.2018....
- [Size: 627.02 MB]

Stephen.Colbert.20...
- [Size: 649.06 MB]

The.Domestics.2018...
- [Size: 705.94 MB]

Tell.Me.A.Story.US...
- [Size: 243.05 MB]

Neelakasham Pachak...
- [Size: 1.48 GB]


Torrent Details For "The.Mummy.2017.2160p.BluRay.x264.8bit.SDR.DTS-HD.MA.TrueHD.7.1.Atmos-SWTYBLZ"

The.Mummy.2017.2160p.BluRay.x264.8bit.SDR.DTS-HD.MA.TrueHD.7.1.Atmos-SWTYBLZ

Download this torrent | Magnet Download
Health:
Seeds: 0
Leechers: 10
Completed:
Last Checked: 22-11-2018 03:41:39
External Torrent
Update Stats



Images Host

Poster


iMDB
Imdb Picture Title: The Mummy
Year: 2017
Runtime: 110 minutes
Votes: 4794
Rating: 6.3/10
Language: English
Country: USA
All Genres: Action, Adventure, Fantasy, Horror
Plot Outline: An ancient princess is awakened from her crypt beneath the desert, bringing with her malevolence grown over millennia, and terrors that defy human comprehension.
Tagline: Ancient evil returns
Director: Alex Kurtzman
Writing By: David Koepp,Christopher McQuarrie,Dylan Kussman,Jon Spaihts,Alex Kurtzman,Jenny Lumet,
Produced By: Sarah Bradshaw,Jeb Brody,Sean Daniel,Alex Kurtzman,Chris Morgan,Roberto Orci,
Music: Brian Tyler
Plot:

Though safely entombed in a crypt deep beneath the unforgiving desert, an ancient princess, whose destiny was unjustly taken from her, is awakened in our current day bringing with her malevolence grown over millennia, and terrors that defy human comprehension.

- Written by Universal Pictures

After being betrayed and having her destiny wrongfully taken from her, an ancient princess is back with a vengeance and determined to take back all that should have been hers, including the world, bringing with her terrors that defy human comprehension.

- Written by PrettyLilLiar2516

An ancient princess is awakened from her crypt beneath the desert, bringing with her malevolence grown over millennia, and terrors that defy human comprehension.

- Written by Universal Pictures
Cast:
Tom Cruise as Nick Morton
Russell Crowe as Dr. Henry Jekyll
Annabelle Wallis as Jenny Halsey
Sofia Boutella as Ahmanet
Jake Johnson as Chris Vail
Courtney B. Vance as Colonel Greenway
Marwan Kenzari as Malik
Simon Atherton as Crusader
Stephen Thompson as First Man
James Arama as Second Man
Trailers:
Official Trailer #3
Official Trailer #2
Official Trailer
Trailer Teaser


Watch-Free-HD     Download

Details
Name:The.Mummy.2017.2160p.BluRay.x264.8bit.SDR.DTS-HD.MA.TrueHD.7.1.Atmos-SWTYBLZ
Description:
SWEATY BALLZ presents

The.Mummy.2017.2160p.BluRay.x264.8bit.SDR.DTS-HD.MA.TrueHD.7.1.Atmos-SWTYBLZ

Converted from 10 bit HDR to 8 bit SDR using tripple mixed Hable-Reinhard-JJ per scene+frame analysis algorithm

 
 
 
 
 
 



Video
ID                                       : 1
Format                                   : AVC
Format/Info                              : Advanced Video Codec
Format profile                           : [email protected]
Format settings, CABAC                   : Yes
Format settings, ReFrames                : 5 frames
Codec ID                                 : V_MPEG4/ISO/AVC
Duration                                 : 1 h 50 min
Bit rate                                 : 66.3 Mb/s
Width                                    : 3 840 pixels
Height                                   : 1 600 pixels
Display aspect ratio                     : 2.40:1
Frame rate mode                          : Constant
Frame rate                               : 23.976 (24000/1001) FPS
Color space                              : YUV
Chroma subsampling                       : 4:2:0
Bit depth                                : 8 bits
Scan type                                : Progressive
Bits/(Pixel*Frame)                       : 0.450
Stream size                              : 51.0 GiB (87%)
Title                                    : The.Mummy.2017.2160p.BluRay.x264.8bit.SDR.DTS-HD.MA.TrueHD.7.1.Atmos-SWTYBLZ
Writing library                          : x264 core 148 r2748 97eaef2
Encoding settings                        : cabac=1 / ref=5 /  deblock=1:-1:-1 / analyse=0x3:0x113 / me=umh / subme=10 / psy=1 /  psy_rd=1.00:0.15 / mixed_ref=1 / me_range=48 / chroma_me=1 / trellis=2 /  8x8dct=1 / cqm=0 / deadzone=21,11 / fast_pskip=1 / chroma_qp_offset=-3 /  threads=50 / lookahead_threads=4 / sliced_threads=0 / nr=0 / decimate=0  / interlaced=0 / bluray_compat=0 / constrained_intra=0 / bframes=3 /  b_pyramid=2 / b_adapt=2 / b_bias=0 / direct=3 / weightb=1 / open_gop=0 /  weightp=2 / keyint=250 / keyint_min=23 / scenecut=40 / intra_refresh=0 /  rc_lookahead=50 / rc=crf / mbtree=1 / crf=18.0 / qcomp=0.60 / qpmin=0 /  qpmax=69 / qpstep=4 / ip_ratio=1.40 / aq=1:1.00
Language                                 : English
Default                                  : Yes
Forced                                   : No

Audio #1
ID                                       : 2
Format                                   : TrueHD
Format profile                           : TrueHD+Atmos / TrueHD
Codec ID                                 : A_TRUEHD
Duration                                 : 1 h 50 min
Bit rate mode                            : Variable
Bit rate                                 : 4 927 kb/s
Maximum bit rate                         : 8 133 kb/s
Channel(s)                               : Object Based / 8 channels
Channel positions                        : Object Based / Front: L C R, Side: L R, Back: L R, LFE
Sampling rate                            :  / 48.0 kHz
Frame rate                               : 1 200.000 FPS (40 spf)
Compression mode                         : Lossless
Delay relative to video                  : 32 ms
Stream size                              : 3.79 GiB (6%)
Title                                    : The.Mummy.2017.2160p.BluRay.x264.8bit.SDR.DTS-HD.MA.TrueHD.7.1.Atmos-SWTYBLZ
Language                                 : English
Default                                  : Yes
Forced                                   : No

Audio #2
ID                                       : 3
Format                                   : DTS
Format/Info                              : Digital Theater Systems
Format profile                           : MA / Core
Mode                                     : 16
Format settings, Endianness              : Big
Codec ID                                 : A_DTS
Duration                                 : 1 h 50 min
Bit rate mode                            : Variable / Constant
Bit rate                                 : 4 195 kb/s / 1 509 kb/s
Channel(s)                               : 8 channels / 6 channels
Channel positions                        : Front: L C R, Side: L R, Back: L R, LFE / Front: L C R, Side: L R, LFE
Sampling rate                            : 48.0 kHz
Frame rate                               : 93.750 FPS (512 spf)
Bit depth                                : 24 bits
Compression mode                         : Lossless / Lossy
Stream size                              : 3.23 GiB (6%)
Title                                    : The.Mummy.2017.2160p.BluRay.x264.8bit.SDR.DTS-HD.MA.TrueHD.7.1.Atmos-SWTYBLZ
Language                                 : English
Default                                  : No
Forced                                   : No

Audio #3
ID                                       : 4
Format                                   : AC-3
Format/Info                              : Audio Coding 3
Format settings, Endianness              : Big
Codec ID                                 : A_AC3
Duration                                 : 1 h 50 min
Bit rate mode                            : Constant
Bit rate                                 : 640 kb/s
Channel(s)                               : 6 channels
Channel positions                        : Front: L C R, Side: L R, LFE
Sampling rate                            : 48.0 kHz
Frame rate                               : 31.250 FPS (1536 spf)
Bit depth                                : 16 bits
Compression mode                         : Lossy
Delay relative to video                  : 31 ms
Stream size                              : 504 MiB (1%)
Title                                    : The.Mummy.2017.2160p.BluRay.x264.8bit.SDR.DTS-HD.MA.TrueHD.7.1.Atmos-SWTYBLZ
Language                                 : English
Service kind                             : Complete Main
Default                                  : No
Forced                                   : No

Text #1
ID                                       : 5
Format                                   : UTF-8
Codec ID                                 : S_TEXT/UTF8
Codec ID/Info                            : UTF-8 Plain Text
Duration                                 : 1 h 36 min
Bit rate                                 : 41 b/s
Count of elements                        : 1083
Stream size                              : 29.4 KiB (0%)
Title                                    : English-SRT
Language                                 : English
Default                                  : No
Forced                                   : No

Text #2
ID                                       : 6
Format                                   : PGS
Muxing mode                              : zlib
Codec ID                                 : S_HDMV/PGS
Codec ID/Info                            : Picture based subtitle format used on BDs/HD-DVDs
Duration                                 : 1 h 37 min
Bit rate                                 : 34.8 kb/s
Count of elements                        : 2716
Stream size                              : 24.3 MiB (0%)
Title                                    : English-PGS
Language                                 : English
Default                                  : Yes
Forced                                   : No

Text #3
ID                                       : 7
Format                                   : PGS
Muxing mode                              : zlib
Codec ID                                 : S_HDMV/PGS
Codec ID/Info                            : Picture based subtitle format used on BDs/HD-DVDs
Duration                                 : 1 h 49 min
Bit rate                                 : 23.7 kb/s
Count of elements                        : 2182
Stream size                              : 18.5 MiB (0%)
Title                                    : Spanish-PGS
Language                                 : Spanish
Default                                  : No
Forced                                   : No

Text #4
ID                                       : 8
Format                                   : PGS
Muxing mode                              : zlib
Codec ID                                 : S_HDMV/PGS
Codec ID/Info                            : Picture based subtitle format used on BDs/HD-DVDs
Duration                                 : 1 h 49 min
Bit rate                                 : 24.4 kb/s
Count of elements                        : 2158
Stream size                              : 19.0 MiB (0%)
Title                                    : French-PGS
Language                                 : French
Default                                  : No
Forced                                   : No

Menu
00:00:00.000                             : en:Chapter 1
00:08:18.706                             : en:Chapter 2
00:13:18.923                             : en:Chapter 3
00:19:31.461                             : en:Chapter 4
00:24:40.145                             : en:Chapter 5
00:28:54.107                             : en:Chapter 6
00:35:41.389                             : en:Chapter 7
00:39:36.040                             : en:Chapter 8
00:47:00.067                             : en:Chapter 9
00:50:57.637                             : en:Chapter 10
00:56:49.739                             : en:Chapter 11
01:00:43.848                             : en:Chapter 12
01:08:58.008                             : en:Chapter 13
01:16:03.850                             : en:Chapter 14
01:19:38.440                             : en:Chapter 15
01:23:16.408                             : en:Chapter 16
01:26:26.848                             : en:Chapter 17
01:33:34.942                             : en:Chapter 18
01:37:02.983                             : en:Chapter 19
01:39:47.982                             : en:Chapter 20
Category:Movies > 4K/UHD
Lang:English  English
Total Size:59.66 GB
Info Hash:05d8e8abeb26cfaf1a0b6dc2afe1f3d84408026d
Added By:Agent47
Date Added:28-10-2017 10:05:22
Downloads:165

Ratings:Not Yet Rated (Log in to rate it)


Tracker:
http://tracker.trackerfix.com:80/announce


File List: 


Comments

No comments still posted

Top
Copyright 2018 DownloadHD -|- Page Generated In 0.489133 secs.
-|- RSS Feed -|- Feed Info
One Direction - Perfect. | Blochin (2) | Watch Now