Login
Username:
Password:
[Signup]
[Recover Account]


Browse Torrents

Poll


You must be logged in to view polls



Latest Torrents
Bumblebee 2018.NEW...
- [Size: 1.35 GB]

Seth.Meyers.2018.1...
- [Size: 582.88 MB]

Seth.Meyers.2018.1...
- [Size: 586.13 MB]

Seth.Meyers.2018.1...
- [Size: 801.04 MB]

18+.What.Keeps.You...
- [Size: 1.10 GB]


Torrent Details For "The.Fifth.Element.1997.2160p.BluRay.x265.10bit.SDR.DTS-HD.MA.TrueHD.7.1.Atmos-SWTYBLZ"

The.Fifth.Element.1997.2160p.BluRay.x265.10bit.SDR.DTS-HD.MA.TrueHD.7.1.Atmos-SWTYBLZ

Download this torrent | Magnet Download
Health:
Seeds: 0
Leechers: 27
Completed:
Last Checked: 27-10-2017 14:35:45
External Torrent
Update Stats



Images Host

Poster


iMDB
Imdb Picture Original Title: Le cinquième élément
Title: The Fifth Element
Year: 1997
Runtime: 126 minutes
Votes: 367695
Rating: 7.7/10
Language: English, Swedish, German
Country: France
All Genres: Action, Adventure, Sci-Fi
Plot Outline: In the colorful future, a cab driver unwittingly becomes the central figure in the search for a legendary cosmic weapon to keep Evil and Mr Zorg at bay.
Tagline: 250 years in the future, all will be lost unless the fifth element is found.
Director: Luc Besson
Writing By: Luc Besson,Robert Mark Kamen,Luc Besson,
Produced By: John A. Amicarella,Patrice Ledoux,Iain Smith,
Music: Éric Serra
Plot:

In the twenty-third century, the universe is threatened by evil. The only hope for mankind is the Fifth Element, who comes to Earth every five thousand years to protect the humans with four stones of the four elements: fire, water, Earth and air. A Mondoshawan spacecraft is bringing The Fifth Element back to Earth but it is destroyed by the evil Mangalores. However, a team of scientists use the DNA of the remains of the Fifth Element to rebuild the perfect being called Leeloo. She escapes from the laboratory and stumbles upon the taxi driver and former elite commando Major Korben Dallas that helps her to escape from the police. Leeloo tells him that she must meet Father Vito Cornelius to accomplish her mission. Meanwhile, the Evil uses the greedy and cruel Jean-Baptiste Emanuel Zorg and a team of mercenary Mangalores to retrieve the stones and avoid the protection of Leeloo. But the skilled Korben Dallas has fallen in love with Leeloo and decides to help her to retrieve the stones.

- Written by Claudio Carvalho, Rio de Janeiro, Brazil

Two hundred and fifty years in the future, life as we know it is threatened by the arrival of Evil. Only the Fifth Element can stop the Evil from extinguishing life, as it tries to do every five thousand years. She is assisted by a former elite commando turned cab driver, Korben Dallas, who is, in turn, helped by Prince/Arsenio clone, Ruby Rhod. Unfortunately, Evil is being assisted by Mr. Zorg, who seeks to profit from the chaos that Evil will bring, and his alien mercenaries.

- Written by David J. Gannon <[email protected]>

There are cycles in the Universe when great evil threatens all life in the Universe. The Ultimate weapon against evil, devised long ago, is called "The Fifth Element", stored on Earth for safekeeping. When a Professor discovered it in the 1910's, he found it very astonishing. However, a group of beings known as the Monascheiwans came to Earth to take the fifth element to utilize it for their own well-being, promising to return it in time for the next cycle. In the distant future of the 2200's, the Earth is a very different place, yet much the same... People smoke, break laws, make messes. In the megalopolis of New York, a former elite commando named Korban Dallas is now a taxi driver. As the Monascheiwans were returning the Fifth Element to Earth to fend of the rising evil, they are destroyed by a ruthless race of beings known as Mangalores. Discovered in the remains of the Monascheiwans' ship, is a remnant of the Fifth Element, from which they re-create "the perfect being", The Fifth Element, named "Leeloo", who drops in on Korban Dallas in his cab... literally. Dallas keeps her free from government control and brings her to a priest named Vito Cornillius, who, seeing the coming Evil in the prophecies, is attempting to find the Elemental Stones needed to power the Fifth Element. He is getting in the way of a ruthless businessman named Zorg, who is already operating under the sway of Evil.

- Written by John Wiggins

In the colorful future, a cab driver unwittingly becomes the central figure in the search for a legendary cosmic weapon to keep Evil and Mr Zorg at bay.

- Written by Murray Chapman
Cast:
Bruce Willis as Korben Dallas
Gary Oldman as Jean-Baptiste Emanuel Zorg
Ian Holm as Father Vito Cornelius
Milla Jovovich as Leeloo
Chris Tucker as Ruby Rhod
Luke Perry as Billy
Brion James as General Munro
Tommy 'Tiny' Lister as President Lindberg
Lee Evans as Fog
Charlie Creed-Miles as David


Watch-Free-HD     Download

Details
Name:The.Fifth.Element.1997.2160p.BluRay.x265.10bit.SDR.DTS-HD.MA.TrueHD.7.1.Atmos-SWTYBLZ
Description:
SWEATY BALLZ presents

The.Fifth.Element.1997.2160p.BluRay.x265.10bit.SDR.DTS-HD.MA.TrueHD.7.1.Atmos-SWTYBLZ

Converted from 10 bit HDR to 10 bit SDR using tripple mixed Hable-Reinhard-JJ per scene+frame analysis algorithm

Screenshots are 8bit SDR because browsers dont support HDR or 10bit files

 
 
 
 
 
 



[B][-] Hide MediaInfo[/B]

Video
ID                                       : 1
Format                                   : HEVC
Format/Info                              : High Efficiency Video Coding
Format profile                           : Main [email protected]@High
Codec ID                                 : V_MPEGH/ISO/HEVC
Duration                                 : 2 h 5 min
Bit rate                                 : 72.0 Mb/s
Width                                    : 3 840 pixels
Height                                   : 1 606 pixels
Display aspect ratio                     : 2.40:1
Frame rate mode                          : Constant
Frame rate                               : 23.976 (24000/1001) FPS
Color space                              : YUV
Chroma subsampling                       : 4:2:0
Bit depth                                : 10 bits
Bits/(Pixel*Frame)                       : 0.487
Stream size                              : 63.3 GiB (87%)
Title                                    : The.Fifth.Element.1997.2160p.BluRay.x265.10bit.SDR.DTS-HD.MA.TrueHD.7.1.Atmos-SWTYBLZ
Writing library                          : x265 2.5+4-b4a5bcfe29c7:[Windows][GCC 4.9.3][64 bit] 10bit
Encoding settings                        : cpuid=1173503 /  frame-threads=16 / numa-pools=24,24,24,24 / wpp / no-pmode / no-pme /  no-psnr / no-ssim / log-level=2 / input-csp=1 / input-res=3840x1606 /  interlace=0 / total-frames=0 / level-idc=51 / high-tier=1 / uhd-bd=0 /  ref=3 / no-allow-non-conformance / repeat-headers / annexb / aud / hrd /  info / hash=0 / no-temporal-layers / no-open-gop / min-keyint=1 /  keyint=24 / bframes=4 / b-adapt=2 / b-pyramid / bframe-bias=0 /  rc-lookahead=25 / lookahead-slices=4 / scenecut=40 / no-intra-refresh /  ctu=64 / min-cu-size=8 / no-rect / no-amp / max-tu-size=32 /  tu-inter-depth=1 / tu-intra-depth=1 / limit-tu=0 / rdoq-level=0 /  dynamic-rd=0.00 / no-ssim-rd / signhide / no-tskip / nr-intra=0 /  nr-inter=0 / no-constrained-intra / strong-intra-smoothing / max-merge=2  / limit-refs=3 / no-limit-modes / me=1 / subme=2 / merange=57 /  temporal-mvp / weightp / no-weightb / no-analyze-src-pics / deblock=0:0 /  no-sao / no-sao-non-deblock / rd=3 / no-early-skip / rskip /  no-fast-intra / no-tskip-fast / no-cu-lossless / no-b-intra /  rdpenalty=0 / psy-rd=2.00 / psy-rdoq=0.00 / no-rd-refine /  analysis-reuse-mode=0 / no-lossless / cbqpoffs=0 / crqpoffs=0 / rc=crf /  crf=16.0 / qcomp=0.60 / qpstep=4 / stats-write=0 / stats-read=0 /  vbv-maxrate=160000 / vbv-bufsize=160000 / vbv-init=0.9 / crf-max=0.0 /  crf-min=0.0 / ipratio=1.40 / pbratio=1.30 / aq-mode=1 / aq-strength=1.00  / cutree / zone-count=0 / no-strict-cbr / qg-size=32 / no-rc-grain /  qpmax=69 / qpmin=0 / no-const-vbv / sar=1 / overscan=0 / videoformat=5 /  range=0 / colorprim=2 / transfer=2 / colormatrix=2 / chromaloc=0 /  display-window=0 / max-cll=0,0 / min-luma=0 / max-luma=1023 /  log2-max-poc-lsb=8 / vui-timing-info / vui-hrd-info / slices=1 /  opt-qp-pps / opt-ref-list-length-pps / no-multi-pass-opt-rps /  scenecut-bias=0.05 / no-opt-cu-delta-qp / no-aq-motion / no-hdr /  no-hdr-opt / no-dhdr10-opt / analysis-reuse-level=5 / scale-factor=0 /  refine-intra=0 / refine-inter=0 / refine-mv=0 / no-limit-sao /  ctu-info=0
Language                                 : English
Default                                  : Yes
Forced                                   : No

Audio #1
ID                                       : 2
Format                                   : TrueHD
Format profile                           : TrueHD+Atmos / TrueHD
Codec ID                                 : A_TRUEHD
Duration                                 : 2 h 5 min
Bit rate mode                            : Variable
Bit rate                                 : 5 666 kb/s
Maximum bit rate                         : 9 144 kb/s
Channel(s)                               : Object Based / 8 channels
Channel positions                        : Object Based / Front: L C R, Side: L R, Back: L R, LFE
Sampling rate                            :  / 48.0 kHz
Frame rate                               : 1 200.000 FPS (40 spf)
Compression mode                         : Lossless
Delay relative to video                  : 1 ms
Stream size                              : 4.98 GiB (7%)
Title                                    : The.Fifth.Element.1997.2160p.BluRay.x265.10bit.SDR.DTS-HD.MA.TrueHD.7.1.Atmos-SWTYBLZ
Language                                 : English
Default                                  : Yes
Forced                                   : No

Audio #2
ID                                       : 3
Format                                   : DTS
Format/Info                              : Digital Theater Systems
Format profile                           : MA / Core
Mode                                     : 16
Format settings, Endianness              : Big
Codec ID                                 : A_DTS
Duration                                 : 2 h 5 min
Bit rate mode                            : Variable / Constant
Bit rate                                 : 4 566 kb/s / 1 509 kb/s
Channel(s)                               : 8 channels / 6 channels
Channel positions                        : Front: L C R, Side: L R, Back: L R, LFE / Front: L C R, Side: L R, LFE
Sampling rate                            : 48.0 kHz
Frame rate                               : 93.750 FPS (512 spf)
Bit depth                                : 24 bits
Compression mode                         : Lossless / Lossy
Stream size                              : 4.01 GiB (6%)
Title                                    : The.Fifth.Element.1997.2160p.BluRay.x265.10bit.SDR.DTS-HD.MA.TrueHD.7.1.Atmos-SWTYBLZ
Language                                 : English
Default                                  : No
Forced                                   : No

Audio #3
ID                                       : 4
Format                                   : AC-3
Format/Info                              : Audio Coding 3
Format settings, Endianness              : Big
Codec ID                                 : A_AC3
Duration                                 : 2 h 5 min
Bit rate mode                            : Constant
Bit rate                                 : 640 kb/s
Channel(s)                               : 6 channels
Channel positions                        : Front: L C R, Side: L R, LFE
Sampling rate                            : 48.0 kHz
Frame rate                               : 31.250 FPS (1536 spf)
Bit depth                                : 16 bits
Compression mode                         : Lossy
Delay relative to video                  : 1 ms
Stream size                              : 576 MiB (1%)
Title                                    : The.Fifth.Element.1997.2160p.BluRay.x265.10bit.SDR.DTS-HD.MA.TrueHD.7.1.Atmos-SWTYBLZ
Language                                 : English
Service kind                             : Complete Main
Default                                  : No
Forced                                   : No

Text #1
ID                                       : 5
Format                                   : UTF-8
Codec ID                                 : S_TEXT/UTF8
Codec ID/Info                            : UTF-8 Plain Text
Duration                                 : 1 h 58 min
Bit rate                                 : 50 b/s
Count of elements                        : 1604
Stream size                              : 43.7 KiB (0%)
Title                                    : English-SRT
Language                                 : English
Default                                  : Yes
Forced                                   : No

Text #2
ID                                       : 6
Format                                   : PGS
Muxing mode                              : zlib
Codec ID                                 : S_HDMV/PGS
Codec ID/Info                            : Picture based subtitle format used on BDs/HD-DVDs
Duration                                 : 1 h 58 min
Bit rate                                 : 32.3 kb/s
Count of elements                        : 2943
Stream size                              : 27.3 MiB (0%)
Title                                    : English-PGS
Language                                 : English
Default                                  : No
Forced                                   : No

Text #3
ID                                       : 7
Format                                   : PGS
Muxing mode                              : zlib
Codec ID                                 : S_HDMV/PGS
Codec ID/Info                            : Picture based subtitle format used on BDs/HD-DVDs
Duration                                 : 2 h 5 min
Bit rate                                 : 36.4 kb/s
Count of elements                        : 3661
Stream size                              : 32.6 MiB (0%)
Title                                    : English-SDH-PGS
Language                                 : English
Default                                  : No
Forced                                   : No

Text #4
ID                                       : 8
Format                                   : PGS
Muxing mode                              : zlib
Codec ID                                 : S_HDMV/PGS
Codec ID/Info                            : Picture based subtitle format used on BDs/HD-DVDs
Duration                                 : 2 h 2 min
Bit rate                                 : 21.2 kb/s
Count of elements                        : 2422
Stream size                              : 18.6 MiB (0%)
Title                                    : French-PGS
Language                                 : French
Default                                  : No
Forced                                   : No

Text #5
ID                                       : 9
Format                                   : PGS
Muxing mode                              : zlib
Codec ID                                 : S_HDMV/PGS
Codec ID/Info                            : Picture based subtitle format used on BDs/HD-DVDs
Duration                                 : 1 h 59 min
Bit rate                                 : 28.8 kb/s
Count of elements                        : 2862
Stream size                              : 24.7 MiB (0%)
Title                                    : Spanish-PGS
Language                                 : Spanish
Default                                  : No
Forced                                   : No

Menu
00:00:00.000                             : en:Chapter 1
00:02:36.489                             : en:Chapter 2
00:12:11.772                             : en:Chapter 3
00:24:17.539                             : en:Chapter 4
00:32:14.682                             : en:Chapter 5
00:40:05.277                             : en:Chapter 6
00:48:16.810                             : en:Chapter 7
00:53:23.241                             : en:Chapter 8
01:00:16.613                             : en:Chapter 9
01:07:17.033                             : en:Chapter 10
01:11:16.730                             : en:Chapter 11
01:21:54.659                             : en:Chapter 12
01:27:25.657                             : en:Chapter 13
01:38:29.778                             : en:Chapter 14
01:46:35.347                             : en:Chapter 15
01:52:26.364                             : en:Chapter 16
Category:Movies > 4K/UHD
Lang:English  English
Total Size:73.51 GB
Info Hash:9ca52c4fdf63c55c97a34d32fa2ee034954edcd3
Added By:Agent47
Date Added:27-10-2017 14:35:45
Downloads:131

Ratings:Not Yet Rated (Log in to rate it)


Tracker:
http://tracker.trackerfix.com:80/announce


File List: 


Comments

No comments still posted

Top
Copyright 2018 DownloadHD -|- Page Generated In 0.340059 secs.
-|- RSS Feed -|- Feed Info
Эми Фергюсон | Isekai Nonbiri Nouka | Tales from the Cryptkeeper