Login
Username:
Password:
[Signup]
[Recover Account]


Browse Torrents

Poll


You must be logged in to view polls



Latest Torrents
MacGyver.2016.S03E...
- [Size: 1.36 GB]

Room.104.S02E03.WE...
- [Size: 223.50 MB]

Real.Time.With.Bil...
- [Size: 329.66 MB]

Van.Helsing.S03E07...
- [Size: 825.83 MB]

Van.Helsing.S03E07...
- [Size: 604.10 MB]


Torrent Details For "Sold 2016 DvDRip x264 AAC { TaRa }"

Sold 2016 DvDRip x264 AAC { TaRa }

Download this torrent | Magnet Download
Health:
Seeds: 0
Leechers: 7
Completed:
Last Checked: 10-02-2018 18:03:01
External Torrent
Update Stats



Images Host

Poster


iMDB
Imdb Picture Title: Sold
Year: 2016
Runtime: 94 minutes
Votes: 1117
Rating: 6.8/10
Language: English, Hindi
All Genres: Drama
Plot Outline: A girl risks everything for freedom after being trafficked from her mountain village in Nepal to a brothel in India.
Director: Jeffrey D. Brown
Writing By: Jeffrey D. Brown,Joseph Kwong,
Produced By: Majed AlJonaid,Amyana Bartley,Jane Charles,Tanaji Dasgupta,Jessica Dhillon,Laura DiBello,Wayne Farmer,Joyce Feeney,Anadil Hossain,Joseph Kwong,Katie Mustard,Neerja Nyak,Sarita Patel,Todd Pelletier,Sherill Pritchett,Jennifer Reibman,Seirah Royin,Regina Kulik Scully,Emma Thompson,Kavi Virk,Jan Waldman-Brown,
Music: John McDowell
Cast:
Gillian Anderson as Sophia
David Arquette as Sam
Priyanka Bose as Monica
Tillotama Shome as Bimla
Parambrata Chatterjee as Vikram
Seema Biswas as Amma
Neerja Naik as Anita
Sushmita Mukherjee as Mumtaz
Ankur Vikal as Varun
Seirah Royin as Mrs. Tripathi
Trailers:
Sold


Watch-Free-HD     Download

Details
Name:Sold 2016 DvDRip x264 AAC { TaRa }
Description:

Sold 2016 DvDRip x264 AAC { TaRa }.mkv



Quote:

===================================================================
General
Complete name               : Sold 2016 DvDRip x264 AAC { TaRa }.mkv
Format                      : Matroska
Format version              : Version 4 / Version 2
File size                   : 390 MiB
Duration                    : 1 h 34 min
Overall bit rate            : 577 kb/s
===================================================================
Video
ID                          : 1
Format                      : AVC
Format/Info                 : Advanced Video Codec
Format profile              : [email protected]
Format settings             : CABAC / 4 Ref Frames
Format settings, CABAC      : Yes
Format settings, RefFrames  : 4 frames
Codec ID                    : V_MPEG4/ISO/AVC
Duration                    : 1 h 34 min
Bit rate                    : 512 kb/s
Width                       : 720 pixels
Height                      : 304 pixels
Display aspect ratio        : 2.35:1
Frame rate mode             : Variable
Frame rate                  : 23.976 (24000/1001) FPS
Color space                 : YUV
Chroma subsampling          : 4:2:0
Bit depth                   : 8 bits
Scan type                   : Progressive
Bits/(Pixel*Frame)          : 0.098
Stream size                 : 345 MiB (88%)
Title                       : .....::::: TaRa :::::.....
Language                    : Hindi
Default                     : Yes
Forced                      : No
===================================================================
Audio
ID                          : 2
Format                      : AAC
Format/Info                 : Advanced Audio Codec
Format profile              : LC
Codec ID                    : A_AAC-2
Duration                    : 1 h 34 min
Bit rate                    : 64.3 kb/s
Channel(s)                  : 2 channels
Channel positions           : Front: L R
Sampling rate               : 48.0 kHz
Frame rate                  : 46.875 FPS (1024 SPF)
Compression mode            : Lossy
Stream size                 : 43.5 MiB (11%)
Title                       : .....::::: TaRa :::::.....
Language                    : Hindi
Default                     : Yes
Forced                      : No
===================================================================



                                               












 

Category:Movies > Bollywood
Lang:Hindi
Total Size:389.96 MB
Info Hash:bbbcd8ffce650976c9c74397b61b14b81c749d84
Added By:SkTaRa
Date Added:27-10-2017 12:21:16
Downloads:304

Ratings:Not Yet Rated (Log in to rate it)


Tracker:
UDP://TRACKER.LEECHERS-PARADISE.ORG:6969/ANNOUNCE

This Torrent also has backup trackers
URLSeedersLeechersCompleted
http://tracker.devil-torrents.pl:80/announce000
http://tracker.devil-torrents.pl/announce100
http://open.kickasstracker.com/announce110
http://open.kickasstracker.com:443/announce010
http://ipv4.tracker.harry.lu/announce010
http://ipv4.tracker.harry.lu:80/announce010
http://t.nyaatracker.com/announce010


File List: 


Comments

No comments still posted

Top
Copyright 2018 DownloadHD -|- Page Generated In 1.682128 secs.
-|- RSS Feed -|- Feed Info
Shounan Jun'ai-gumi | La ForĂȘt | Guardian of the Spirit (3)