Login
Username:
Password:
[Signup]
[Recover Account]


Browse Torrents

Poll


You must be logged in to view polls



Latest Torrents
Van.Helsing.S03E07...
- [Size: 825.83 MB]

Van.Helsing.S03E07...
- [Size: 604.10 MB]

Master.of.Arms.S01...
- [Size: 983.73 MB]

Master.of.Arms.S01...
- [Size: 326.47 MB]

Z.Nation.S05E07.WE...
- [Size: 601.09 MB]


Torrent Details For "Aashayein 2010 Hindi 720p NF WEB-DL AVC AAC - DownloadHD"

Aashayein 2010 Hindi 720p NF WEB-DL AVC AAC - DownloadHD

Download this torrent | Magnet Download
Health:
Seeds: 0
Leechers: 11
Completed: 313 
Last Checked: 04-02-2018 19:43:47
External Torrent
Update Stats



Images Host

Poster


iMDB
Imdb Picture Title: Aashayein
Year: 2010
Runtime: 120 minutes
Votes: 994
Rating: 7.1/10
Language: Hindi, English, Marathi
Country: India
All Genres: Drama
Plot Outline: A man meets with assorted characters in a nursing home after being diagnosed with cancer.
Tagline: Prepare for life
Director: Nagesh Kukunoor
Writing By: Nagesh Kukunoor,
Produced By: Praful Salunke,
Music: Salim Merchant Salim-Sulaiman
Cast:
John Abraham as Rahul Sharma / Bhaskar Suryanarayan
Anaitha Nair as Padma / Bangal Alavelu Padmavati
Girish Karnad as G. Parthasarthi
Farida Jalal as Madhu
Prateeksha Lonkar as Sister Grace
Ashwin Chitale as Govinda
Sonal Sehgal as Nafisa
Vipin Bhali as Hassan
Poonam Chitale as Govinda's Mother
Arjun Dhanraj as Molotov Cocktail Band
Trailers:
Aashayein - Trailer


Watch-Free-HD     Download

Details
Name:Aashayein 2010 Hindi 720p NF WEB-DL AVC AAC - DownloadHD
Description:

Aashayein (2010) 720p NF Untouched WEB-DL AVC AAC - DownloadHD

Media Info
Format                      : Matroska
Format version              : Version 4 / Version 2
File size                   : 1.80 GiB
Duration                    : 1 h 55 min
Overall bit rate            : 2 237 kb/s


Video
ID                          : 2
Format                      : AVC
Format/Info                 : Advanced Video Codec
Format profile              : [email protected]
Format settings, CABAC      : No
Format settings, ReFrames   : 1 frame
Format settings, GOP        : M=1, N=13
Codec ID                    : V_MPEG4/ISO/AVC
Duration                    : 1 h 55 min
Bit rate                    : 2 139 kb/s
Width                       : 1 280 pixels
Height                      : 720 pixels
Display aspect ratio        : 16:9
Frame rate mode             : Constant
Frame rate                  : 25.000 FPS
Color space                 : YUV
Chroma subsampling          : 4:2:0
Bit depth                   : 8 bits
Scan type                   : Progressive
Bits/(Pixel*Frame)          : 0.093
Stream size                 : 1.72 GiB (96%)
Default                     : Yes
Forced                      : No

Audio
ID                          : 1
Format                      : AAC
Format/Info                 : Advanced Audio Codec
Format profile              : HE-AAC / LC
Codec ID                    : A_AAC
Duration                    : 1 h 55 min
Bit rate                    : 96.0 kb/s
Channel(s)                  : 2 channels
Channel positions           : Front: L R
Sampling rate               : 48.0 kHz / 24.0 kHz
Frame rate                  : 23.438 FPS (1024 spf)
Compression mode            : Lossy
Stream size                 : 79.0 MiB (4%)
Default                     : Yes
Forced                      : No

Screenshots

 
 
 
 
 
 
 
 
Category:Movies > Bollywood
Lang:Hindi
Total Size:1.80 GB
Info Hash:255e70efec46581996755df42dd6a2306eae7843
Added By:Download
Date Added:26-10-2017 13:52:45
Downloads:236

Ratings:Not Yet Rated (Log in to rate it)


Tracker:
http://ipv4.tracker.harry.lu/announce

This Torrent also has backup trackers
URLSeedersLeechersCompleted
http://ipv4.tracker.harry.lu/announce133
http://ipv4.tracker.harry.lu:80/announce133
http://opentracker-milanesi.rhcloud.com/announce000
http://t.nyaatracker.com/announce020
http://tracker.devil-torrents.pl:80/announce000
http://tracker.devil-torrents.pl/announce000
http://open.kickasstracker.com/announce020
http://opentracker-milanesi.rhcloud.com:80/announce000
http://open.kickasstracker.com:443/announce020
http://opentracker-milanesi.rhcloud.com:443/announce000
http://t.nyaatracker.com:80/announce171426


File List: 


Comments

No comments still posted

Top
Copyright 2018 DownloadHD -|- Page Generated In 2.921594 secs.
-|- RSS Feed -|- Feed Info
Ostsee Wellness | DVD Kshanam (2016) | Lista de capĂ­tulos