Login
Username:
Password:
[Signup]
[Recover Account]


Browse Torrents

Poll


You must be logged in to view polls



Latest Torrents
Puzzle.2018.HDRip....
- [Size: 1.43 GB]

Puzzle.2018.HDRip....
- [Size: 1.34 GB]

Sui.Dhaaga.2018.Hi...
- [Size: 3.00 GB]

The Girl in the Sp...
- [Size: 972.81 MB]

Sally4Ever.S01E01....
- [Size: 195.91 MB]


Torrent Details For "Glory.Day.2016.1080p.BluRay.x264.DTS-WiKi"

Glory.Day.2016.1080p.BluRay.x264.DTS-WiKi

Download this torrent | Magnet Download
Health:
Seeds: 0
Leechers: 39
Completed:
Last Checked: 24-10-2017 10:45:11
External Torrent
Update Stats



Images Host

Poster


iMDB
Imdb Picture Title: Glory Day
Year: 2016
Runtime: 93 minutes
Votes: 275
Rating: 6.8/10
Language: Korean
Country: South Korea
All Genres: Drama
Plot Outline: Four friends on a trip rescue a woman who is being beaten by a man, only to be pursued by the police. One of them lapses into unconsciousness following an ensuing car accident and the other three are arrested on suspicious of murder.
Director: Jeong-Yeol Choi
Writing By: Jeong-Yeol Choi,
Produced By: Byung Rae Ahn,Tae-sung Jeong,Young-Wook Kim,Soon-rye Yim,
Music: Kyo-im Jeong
Cast:
Ji Soo as Yong-bi
Suho as Sang-woo
Jun-yeol Ryu as Ji-gong
Hee-Chan Kim as Doo-man
Dong-wan Kim as Yong-bi's Brother
Sang-hee Lee as Nurse


Watch-Free-HD     Download

Details
Name:Glory.Day.2016.1080p.BluRay.x264.DTS-WiKi
Description:
MediaInfo

Video
ID                                       : 1
Format                                   : AVC
Format/Info                              : Advanced Video Codec
Format profile                           : [email protected]
Format settings, CABAC                   : Yes
Format settings, ReFrames                : 5 frames
Codec ID                                 : V_MPEG4/ISO/AVC
Duration                                 : 1 h 33 min
Bit rate                                 : 18.0 Mb/s
Width                                    : 1 920 pixels
Height                                   : 806 pixels
Display aspect ratio                     : 2.40:1
Frame rate mode                          : Constant
Frame rate                               : 23.976 (24000/1001) FPS
Color space                              : YUV
Chroma subsampling                       : 4:2:0
Bit depth                                : 8 bits
Scan type                                : Progressive
Bits/(Pixel*Frame)                       : 0.485
Stream size                              : 11.7 GiB (92%)
Writing library                          : x264 core 152 r2851+58 429492e t_mod_Custom [[email protected] X86_64]
Encoding settings                        : cabac=1 / ref=5 / deblock=1:-3:-3 / analyse=0x3:0x133 / me=umh / subme=10 / psy=1 / fade_compensate=0.00 / psy_rd=1.00:0.05 / mixed_ref=1 / me_range=32 / chroma_me=1 / trellis=2 / 8x8dct=1 / cqm=0 / deadzone=21,11 / fast_pskip=0 / chroma_qp_offset=-3 / threads=24 / lookahead_threads=4 / sliced_threads=0 / nr=0 / decimate=0 / interlaced=0 / bluray_compat=0 / constrained_intra=0 / fgo=0 / bframes=8 / b_pyramid=2 / b_adapt=1 / b_bias=0 / direct=3 / weightb=1 / open_gop=0 / weightp=2 / keyint=250 / keyint_min=23 / scenecut=40 / intra_refresh=0 / rc=2pass / mbtree=0 / bitrate=18000 / ratetol=1.0 / qcomp=0.70 / qpmin=0:0:0 / qpmax=69:69:69 / qpstep=4 / cplxblur=20.0 / qblur=0.5 / ip_ratio=1.30 / pb_ratio=1.20 / aq=3:0.80 / aq-sensitivity=10.00 / aq-factor=1.00:1.00:1.00 / aq2=0 / aq3=0 / zones=192,549,b=1.5
Default                                  : Yes
Forced                                   : No

Audio
ID                                       : 2
Format                                   : DTS
Format/Info                              : Digital Theater Systems
Mode                                     : 16
Format settings, Endianness              : Big
Codec ID                                 : A_DTS
Duration                                 : 1 h 33 min
Bit rate mode                            : Constant
Bit rate                                 : 1 509 kb/s
Channel(s)                               : 6 channels
Channel positions                        : Front: L C R, Side: L R, LFE
Sampling rate                            : 48.0 kHz
Frame rate                               : 93.750 FPS (512 spf)
Bit depth                                : 24 bits
Compression mode                         : Lossy
Stream size                              : 1 005 MiB (8%)
Language                                 : Korean
Default                                  : Yes
Forced                                   : No

Text #1
ID                                       : 3
Format                                   : UTF-8
Codec ID                                 : S_TEXT/UTF8
Codec ID/Info                            : UTF-8 Plain Text
Duration                                 : 1 h 25 min
Bit rate                                 : 41 b/s
Count of elements                        : 1242
Stream size                              : 26.0 KiB (0%)
Title                                    : CHS
Default                                  : No
Forced                                   : No

Text #2
ID                                       : 4
Format                                   : UTF-8
Codec ID                                 : S_TEXT/UTF8
Codec ID/Info                            : UTF-8 Plain Text
Duration                                 : 1 h 25 min
Bit rate                                 : 41 b/s
Count of elements                        : 1242
Stream size                              : 26.0 KiB (0%)
Title                                    : CHT
Default                                  : No
Forced                                   : No

Menu
00:00:00.000                             : en:00:00:00.000
00:07:15.894                             : en:00:07:15.894
00:17:26.796                             : en:00:17:26.796
00:25:26.275                             : en:00:25:26.275
00:36:26.226                             : en:00:36:26.226
00:42:18.911                             : en:00:42:18.911
00:52:24.183                             : en:00:52:24.183
01:03:19.129                             : en:01:03:19.129
01:10:51.747                             : en:01:10:51.747
01:22:14.138                             : en:01:22:14.138
01:29:15.976                             : en:01:29:15.976

 
 
 
 
 
 
Category:Movies > 1080P Bluray
Lang:Korean
Total Size:12.69 GB
Info Hash:bbd4f9ba8e722f8250112937ca3442ee81dac003
Added By:Agent47
Date Added:24-10-2017 10:45:11
Downloads:68

Ratings:Not Yet Rated (Log in to rate it)


Tracker:
http://tracker.trackerfix.com:80/announce


File List: 


Comments

No comments still posted

Top
Copyright 2018 DownloadHD -|- Page Generated In 0.230078 secs.
-|- RSS Feed -|- Feed Info