Login
Username:
Password:
[Signup]
[Recover Account]


Browse Torrents

Poll


You must be logged in to view polls



Latest Torrents
Nightflyers.S01E10...
- [Size: 744.79 MB]

Nightflyers.S01E10...
- [Size: 255.73 MB]

Nightflyers.S01E10...
- [Size: 250.16 MB]

Legacies.S01E07.72...
- [Size: 130.84 MB]

Murphy.Brown.S11E1...
- [Size: 148.61 MB]


Torrent Details For "Daytime.Shooting.Star.2017.1080p.BluRay.x264.DTS-WiKi"

Daytime.Shooting.Star.2017.1080p.BluRay.x264.DTS-WiKi

Download this torrent | Magnet Download
Health:
Seeds: 0
Leechers: 30
Completed:
Last Checked: 24-10-2017 10:19:08
External Torrent
Update Stats



Images Host

Poster


iMDB
Imdb Picture Title: Hirunaka no ryuusei
Year: 2017
Votes: 18
Rating: 8.6/10
Language: Japanese
Country: Japan
All Genres: Romance
Plot Outline: Suzume Yosano's parents have decided to move to Bangladesh when her father's job gets transferred there. However, they're not taking her with them. So, Suzume moves to Tokyo to live with ...
Director: Takehiko Shinjo
Writing By: Mika Yamamori,Naoko Adachi,
Cast:
Shôhei Miura as
Mei Nagano as
Akira Onodera as
Ryûta Satô as Yûkichi Kumamoto
Alan Shirahama as
Maika Yamamoto as


Watch-Free-HD     Download

Details
Name:Daytime.Shooting.Star.2017.1080p.BluRay.x264.DTS-WiKi
Description:
MediaInfo

Video
ID                                       : 1
Format                                   : AVC
Format/Info                              : Advanced Video Codec
Format profile                           : [email protected]
Format settings, CABAC                   : Yes
Format settings, ReFrames                : 4 frames
Codec ID                                 : V_MPEG4/ISO/AVC
Duration                                 : 1 h 58 min
Bit rate                                 : 14.5 Mb/s
Width                                    : 1 920 pixels
Height                                   : 1 036 pixels
Display aspect ratio                     : 1.85:1
Frame rate mode                          : Constant
Frame rate                               : 23.976 (24000/1001) FPS
Color space                              : YUV
Chroma subsampling                       : 4:2:0
Bit depth                                : 8 bits
Scan type                                : Progressive
Bits/(Pixel*Frame)                       : 0.304
Stream size                              : 11.7 GiB (93%)
Writing library                          : x264 core 142 r2431+42 c69a006 tMod [[email protected] X86_64]
Encoding settings                        : cabac=1 / ref=4 / deblock=1:-3:-3 / analyse=0x3:0x133 / me=umh / subme=11 / psy=1 / fade_compensate=0.00 / psy_rd=1.05:0.15 / mixed_ref=1 / me_range=64 / chroma_me=1 / trellis=2 / 8x8dct=1 / cqm=0 / deadzone=21,11 / fast_pskip=0 / chroma_qp_offset=-1 / threads=12 / lookahead_threads=3 / sliced_threads=0 / nr=0 / decimate=0 / interlaced=0 / bluray_compat=0 / constrained_intra=0 / fgo=0 / bframes=10 / b_pyramid=2 / b_adapt=2 / b_bias=0 / direct=3 / weightb=1 / open_gop=0 / weightp=2 / keyint=250 / keyint_min=23 / scenecut=40 / intra_refresh=0 / rc_lookahead=80 / rc=2pass / mbtree=0 / bitrate=14500 / ratetol=1.0 / qcomp=0.65 / qpmin=0:0:0 / qpmax=69:69:69 / qpstep=4 / cplxblur=20.0 / qblur=0.5 / vbv_maxrate=50000 / vbv_bufsize=50000 / nal_hrd=none / filler=0 / ip_ratio=1.40 / pb_ratio=1.30 / aq=1:0.80 / aq-sensitivity=10.00 / aq-factor=1.00:1.00:1.00 / aq2=0 / aq3=0
Language                                 : Japanese
Default                                  : Yes
Forced                                   : No
Color range                              : Limited
Matrix coefficients                      : BT.709

Audio
ID                                       : 2
Format                                   : DTS
Format/Info                              : Digital Theater Systems
Mode                                     : 16
Format settings, Endianness              : Big
Codec ID                                 : A_DTS
Duration                                 : 1 h 58 min
Bit rate mode                            : Constant
Bit rate                                 : 768 kb/s
Channel(s)                               : 6 channels
Channel positions                        : Front: L C R, Side: L R, LFE
Sampling rate                            : 48.0 kHz
Frame rate                               : 93.750 FPS (512 spf)
Bit depth                                : 24 bits
Compression mode                         : Lossy
Stream size                              : 650 MiB (5%)
Language                                 : Japanese
Default                                  : Yes
Forced                                   : No

Text
ID                                       : 3
Format                                   : ASS
Codec ID                                 : S_TEXT/ASS
Codec ID/Info                            : Advanced Sub Station Alpha
Compression mode                         : Lossless
Title                                    : CHT
Language                                 : Chinese
Default                                  : No
Forced                                   : No

Menu
00:00:00.000                             : en:00:00:00.000
00:06:20.046                             : en:00:06:20.046
00:10:36.553                             : en:00:10:36.553
00:15:49.157                             : en:00:15:49.157
00:26:16.074                             : en:00:26:16.074
00:30:51.266                             : en:00:30:51.266
00:41:39.789                             : en:00:41:39.789
00:48:41.127                             : en:00:48:41.127
00:54:15.961                             : en:00:54:15.961
01:02:03.595                             : en:01:02:03.595
01:12:24.507                             : en:01:12:24.507
01:17:26.433                             : en:01:17:26.433
01:20:25.154                             : en:01:20:25.154
01:24:57.509                             : en:01:24:57.509
01:33:47.831                             : en:01:33:47.831
01:41:48.144                             : en:01:41:48.144
01:48:22.538                             : en:01:48:22.538
01:54:14.306                             : en:01:54:14.306

 
 
 
 
 
Category:Movies > 1080P Bluray
Lang:Japanese  Japanese
Total Size:12.62 GB
Info Hash:67d450fbb42a28859a82491d0e4cef27be4fc128
Added By:Agent47
Date Added:24-10-2017 10:19:07
Downloads:56

Ratings:Not Yet Rated (Log in to rate it)


Tracker:
http://tracker.trackerfix.com:80/announce


File List: 


Comments

No comments still posted

Top
Copyright 2018 DownloadHD -|- Page Generated In 0.321820 secs.
-|- RSS Feed -|- Feed Info
subtituladas | The Sting | Kizumonogatari III: Reiketsu-hen (2017)