Login
Username:
Password:
[Signup]
[Recover Account]


Browse Torrents

Poll


You must be logged in to view polls



Latest Torrents
A Star Is Born (20...
- [Size: 1.07 GB]

VSO ConvertXtoHD 3...
- [Size: 1.46 MB]

NETGATE Spy Emerge...
- [Size: 29.20 MB]

MacPaw CleanMyPC 1...
- [Size: 584.87 kB]

FileConvert Profes...
- [Size: 134.79 MB]


Torrent Details For "Cars.3.2017.720p.AMZN.WEBRip.DDP5.1.x264-SiGMA"

Cars.3.2017.720p.AMZN.WEBRip.DDP5.1.x264-SiGMA

Download this torrent | Magnet Download
Health:
Seeds: 0
Leechers: 43
Completed:
Last Checked: 24-10-2017 10:12:47
External Torrent
Update Stats



Images Host

Poster


iMDB
Imdb Picture Title: Cars 3
Year: 2017
Runtime: 109 minutes
Votes: 589
Rating: 7.6/10
Language: English
Country: USA
All Genres: Animation, Adventure, Comedy, Family, Sport
Plot Outline: Lightning McQueen sets out to prove to a new generation of racers that he's still the best race car in the world.
Tagline: It's not over until lightning strikes.
Director: Brian Fee
Writing By: Brian Fee,Ben Queen,Eyal Podell,Jonathon E. Stewart,Kiel Murray,Bob Peterson,Mike Rich,
Produced By: John Lasseter,Kevin Reher,Andrea Warren,
Music: Randy Newman
Plot:

Blindsided by a new generation of blazing-fast racers, the legendary Lightning McQueen is suddenly pushed out of the sport he loves. To get back in the game, he will need the help of an eager young race technician with her own plan to win, inspiration from the late Fabulous Hudson Hornet, and a few unexpected turns. Proving that #95 isn't through yet will test the heart of a champion on Piston Cup Racing's biggest stage!

- Written by Pixar

Lightning McQueen is suddenly pushed out of his favorite sport due to new generation cars that have taken over the track, like Jackson Storm. Lightning McQueen is out modeled and has to get help from Cruz Ramierez.

Racing is starting to become tough for Lightning McQueen, as he is becoming one of the oldest race cars on the race track and a generation of new rookies are coming into the racing world. For Lightning to prove that he is still a top racer, he is going to need help from an eager young female car named Cruz Ramirez, who is to help and train Lightning. He's not quitting until he shows he is still a top racer.

Lightning McQueen sets out to prove to a new generation of racers that he's still the best race car in the world.


Cast:
Owen Wilson as Lightning McQueen
Cristela Alonzo as Cruz Ramirez
Chris Cooper as Smokey
Nathan Fillion as Sterling
Larry the Cable Guy as Mater
Armie Hammer as Jackson Storm
Ray Magliozzi as Dusty
Tony Shalhoub as Luigi
Bonnie Hunt as Sally
Lea DeLaria as Miss Fritter
Trailers:
"The Limit" Trailer
"Rivalry" Trailer
Official Trailer
Extended Sneak Peek
Teaser Trailer


Watch-Free-HD     Download

Details
Name:Cars.3.2017.720p.AMZN.WEBRip.DDP5.1.x264-SiGMA
Description:
MediaInfo

Video
ID                                       : 1
Format                                   : AVC
Format/Info                              : Advanced Video Codec
Format profile                           : [email protected]
Format settings, CABAC                   : Yes
Format settings, ReFrames                : 5 frames
Codec ID                                 : V_MPEG4/ISO/AVC
Duration                                 : 1 h 42 min
Bit rate mode                            : Variable
Bit rate                                 : 2 560 kb/s
Maximum bit rate                         : 4 500 kb/s
Width                                    : 1 280 pixels
Height                                   : 528 pixels
Display aspect ratio                     : 2.40:1
Original display aspect ratio            : 2.40:1
Frame rate mode                          : Constant
Frame rate                               : 23.976 (24000/1001) FPS
Color space                              : YUV
Chroma subsampling                       : 4:2:0
Bit depth                                : 8 bits
Scan type                                : Progressive
Bits/(Pixel*Frame)                       : 0.158
Stream size                              : 1.83 GiB (80%)
Default                                  : Yes
Forced                                   : No
Color range                              : Limited
Color primaries                          : BT.709
Transfer characteristics                 : BT.709
Matrix coefficients                      : BT.709

Audio
ID                                       : 2
Format                                   : E-AC-3
Format/Info                              : Enhanced Audio Coding 3
Format settings, Endianness              : Big
Codec ID                                 : A_EAC3
Duration                                 : 1 h 42 min
Bit rate mode                            : Constant
Bit rate                                 : 640 kb/s
Channel(s)                               : 6 channels
Channel positions                        : Front: L C R, Side: L R, LFE
Sampling rate                            : 48.0 kHz
Frame rate                               : 187.500 FPS (256 spf)
Compression mode                         : Lossy
Stream size                              : 469 MiB (20%)
Language                                 : English
Service kind                             : Complete Main
Default                                  : Yes
Forced                                   : No

Text
ID                                       : 3
Format                                   : UTF-8
Codec ID                                 : S_TEXT/UTF8
Codec ID/Info                            : UTF-8 Plain Text
Duration                                 : 1 h 40 min
Bit rate                                 : 87 b/s
Count of elements                        : 2107
Stream size                              : 64.3 KiB (0%)
Language                                 : English
Default                                  : No
Forced                                   : No


 
 
 
 
 
 
Category:Movies > WEB-HD
Lang:English  English
Total Size:2.29 GB
Info Hash:cb9cc43cca799fcc1f97041f3d32afbf2059f6d7
Added By:Agent47
Date Added:24-10-2017 10:12:47
Downloads:46

Ratings:Not Yet Rated (Log in to rate it)


Tracker:
http://tracker.trackerfix.com:80/announce


File List: 


Comments

No comments still posted

Top
Copyright 2018 DownloadHD -|- Page Generated In 0.299196 secs.
-|- RSS Feed -|- Feed Info