Login
Username:
Password:
[Signup]
[Recover Account]


Browse Torrents

Poll


You must be logged in to view polls



Latest Torrents
Crazy.Rich.Asians....
- [Size: 3.20 GB]

BigBoss.S12.Ep41.1...
- [Size: 3.50 GB]

Puzzle.2018.HDRip....
- [Size: 1.43 GB]

Puzzle.2018.HDRip....
- [Size: 1.34 GB]

Sui.Dhaaga.2018.Hi...
- [Size: 3.00 GB]


Torrent Details For "The Messengers 2007 720p Esub BluRay Dual Audio English Hindi GOPISAHI @ Team IcTv"

The Messengers 2007 720p Esub BluRay Dual Audio English Hindi GOPISAHI @ Team IcTv

Download this torrent | Magnet Download
Health:
Seeds: 0
Leechers: 2
Completed: 821 
Last Checked: 25-08-2018 07:11:39
External Torrent
Update Stats



Images Host

Poster


iMDB
Imdb Picture Title: The Messengers
Year: 2007
Runtime: 90 minutes
Votes: 35068
Rating: 5.4/10
Language: English
Country: USA
All Genres: Horror, Mystery, Thriller
Plot Outline: An ominous darkness invades a seemingly serene sunflower farm in North Dakota, and the Solomon family is torn apart by suspicion, mayhem and murder.
Tagline: There is evidence to suggest that children are highly susceptible to paranormal phenomena. They see what adults cannot. They believe what adults deny. And they are trying to warn us.
Director: Danny Pang
Oxide Chun Pang
Writing By: Mark Wheaton,Todd Farmer,
Produced By: Lou Arkoff,Rhonda Baker,Joseph Drake,Nathan Kahane,Kelli Konop,Jim Miller,Andrew Pfeffer,Sam Raimi,William Sherak,Jason Shuman,Rob Tapert,J.R. Young,
Music: Joseph LoDuca
Cast:
Kristen Stewart as Jess
Dylan McDermott as Roy
Penelope Ann Miller as Denise
John Corbett as Burwell
Evan Turner as Ben
Theodore Turner as Ben
William B. Davis as Colby Price
Brent Briscoe as Plume
Dustin Milligan as Bobby
Jodelle Ferland as Michael Rollins
Trailers:
The Messengers


Watch-Free-HD     Download

Details
Name:The Messengers 2007 720p Esub BluRay Dual Audio English Hindi GOPISAHI @ Team IcTv
Description:


Format                         : Matroska
Format version                 : Version 4 / Version 2
File size                      : 690 MiB
Duration                       : 1 h 30 min
Overall bit rate               : 1 066 kb/s
Movie name                     : The Messengers 2007

Video
Format                         : AVC
Codec ID                       : V_MPEG4/ISO/AVC
Duration                       : 1 h 30 min
Bit rate                       : 940 kb/s
Width                          : 1 280 pixels
Height                         : 692 pixels
Display aspect ratio           : 1.85:1
Frame rate mode                : Variable
Frame rate                     : 23.836 FPS
Original frame rate            : 23.976 (24000/1001) FPS
Stream size                    : 604 MiB (88%)
Writing library                : x264

Audio #1
Format                         : AAC
Duration                       : 1 h 30 min
Bit rate                       : 66.2 kb/s
Channel(s)                     : 6 channels
Channel positions              : Front: L C R, Side: L R, LFE
Sampling rate                  : 44.1 kHz
Frame rate                     : 43.066 FPS (1024 SPF)
Stream size                    : 43.3 MiB (6%)
Language                       : Hindi

Audio #2
Format                         : AAC
Duration                       : 1 h 30 min
Bit rate                       : 63.6 kb/s
Channel(s)                     : 2 channels
Channel positions              : Front: L R
Sampling rate                  : 48.0 kHz / 24.0 kHz
Frame rate                     : 23.438 FPS (1024 SPF)
Stream size                    : 41.2 MiB (6%)
Language                       : English

Text
Language                       : English



Category:Movies > Hollywood Dub
Lang:Hindi
Total Size:689.80 MB
Info Hash:35346fd8de531712d590eca8585ca99a8e8010ae
Added By:gopisahi
Date Added:24-10-2017 07:56:37
Downloads:282

Ratings:Not Yet Rated (Log in to rate it)


Tracker:
http://ipv4.tracker.harry.lu/announce

This Torrent also has backup trackers
URLSeedersLeechersCompleted
http://ipv4.tracker.harry.lu/announce482445
http://ipv4.tracker.harry.lu:80/announce482445
http://163.172.180.68:80/announce482445
http://t.nyaatracker.com/announce381940
http://tracker.devil-torrents.pl:80/announce39230
http://tracker.devil-torrents.pl/announce39230
http://open.kickasstracker.com/announce45260
http://163.172.180.68/announce482445
http://t.nyaatracker.com:80/announce381940
http://retracker.mgts.by:80/announce0176
http://45.33.11.224/announce381940
http://tracker.torrentyorg.pl:80/announce015
http://pt.lax.mx:80/announce361794


File List: 


Comments

<< Previous      Next >>
1 - 2

[Report] Posted: 25-10-2017 at 02:38:23
Uploader



 DIRECT DOWNLOAD - clicknupload


 DIRECT DOWNLOAD - openload

[Report] Posted: 25-10-2017 at 02:38:52
Uploader



 DIRECT DOWNLOAD - clicknupload


 DIRECT DOWNLOAD - openload

1 - 2
<< Previous      Next >>


Top
Copyright 2018 DownloadHD -|- Page Generated In 0.500824 secs.
-|- RSS Feed -|- Feed Info