Login
Username:
Password:
[Signup]
[Recover Account]


Browse Torrents

Poll


You must be logged in to view polls



Latest Torrents
Jalebi The Taste o...
- [Size: 1.27 GB]

Stephen.Colbert.20...
- [Size: 648.64 MB]

Hum Saath Saath Ha...
- [Size: 1.67 GB]

Adam.Ruins.Everyth...
- [Size: 455.49 MB]

Brothers.in.Arms.S...
- [Size: 580.65 MB]


Torrent Details For "Ghajini 2008 1080p Bluray 10bit x265 5.1 AAC HEVC Natty"

Ghajini 2008 1080p Bluray 10bit x265 5.1 AAC HEVC Natty

Download this torrent | Magnet Download
Health:
Seeds: 2
Leechers: 0
Completed: 77 
Last Checked: 12-12-2018 09:16:22
External Torrent
Update Stats



Images Host

Poster


iMDB
Imdb Picture Title: Ghajini
Year: 2008
Runtime: 183 minutes
Votes: 42406
Rating: 7.3/10
Language: Hindi, Urdu
Country: India
All Genres: Action, Drama, Mystery, Romance, Thriller
Plot Outline: A short-term memory loss patient sets out on his journey to avenge the death of his beloved girl.
Tagline: Remember Dec.25
Director: A.R. Murugadoss
Writing By: Piyush Mishra,A.R. Murugadoss,
Produced By: Harish Amin,Tejaswita Desai,Tagore Madhu,Madhu Mantena Varma,Amit P. Singh,Allu Sirish,
Music: A.R. Rahman
Plot:

Medical student, Sunita, is driven by curiosity to study the case of Sanjay Singhania, who is afflicted with short-term memory loss. She runs into him, befriends him, and finds out that he is out to kill a seemingly benevolent citizen, Ghajini Dharmatma. After warning the latter of the impending danger, she subsequently comes across a number of diaries written by Sanjay and attempts to put together a jigsaw puzzle as to how a successful and wealthy businessman became a crazed recluse, who re-lives his past through tattoos on his body, notes and Polaroid photographs on the wall of his Hiranandani Complex flat, and his sole obsession of carrying out his deadly mission - little knowing that Ghajini and his goons are out to erase every bit of evidence he has gathered and thus ensure that he ends up remembering nothing.

- Written by rAjOo ([email protected])

One of the wealthiest business tycoon Sanjay Singhania (Owner of Singhania group of Industries) who was a very nice businessman and fell in love with a beautiful girl Kalpana who was an ad film actress. His life is ruined by a man called Ghajini who killed his love and also damaged his brain and two years later he is suffering from a mental disease called short-term memory lost he is living his life by writing notes, clicking pictures and sketching tattoos on his body just to take avenge from the man ghajini.

- Written by Naved Dalkhania

A short-term memory loss patient sets out on his journey to avenge the death of his beloved girl.

- Written by Nebzyl
Cast:
Aamir Khan as Sanjay Singhania / Sachin
Asin as Kalpana Shetty
Jiah Khan as Sunita
Tinnu Anand as Satveer Kohli
Pradeep Singh Rawat as Ghajini Dharmatma
Asif Ahmed as
John Cardiel as
Vibha Chhibber as Havaldar Vijyanti
Neville Dadachanji as Mr. Mehta
Mahendra Gole as


Watch-Free-HD     Download

Details
Name:Ghajini 2008 1080p Bluray 10bit x265 5.1 AAC HEVC Natty
Description:
Ghajini 2008 in 1080p, encoded with x265 (HEVC) and AAC 5.1 Hindi Audio with multiple subtitles!
Encoded using the time consuming Slow preset 2 pass, 10 bit color at 3250 kbps, from an Untouched Bluray source, for the highest quality possible.




PLEASE SEED IF YOU WANT ME TO UPLOAD MORE  :Qpirate:

Source: Untouched Bluray by DownloadHD

Screenshots







Encode Media Info:

Format                                   : Matroska
Format version                           : Version 4 / Version 2
File size                                : 4.65 GiB
Duration                                 : 3h 5mn
Overall bit rate                         : 3 600 Kbps
Movie name                               : GHAJINI
Encoded date                             : UTC 2017-02-01 18:53:04
Writing application                      : mkvmerge v9.8.0 ('Kuglblids') 64bit
Writing library                          : libebml v1.3.4 + libmatroska v1.4.5
Cover                                    : Yes
Attachments                              : cover.jpg

Video
ID                                       : 1
Format                                   : HEVC
Format/Info                              : High Efficiency Video Coding
Format profile                           : Main [email protected]@Main
Codec ID                                 : V_MPEGH/ISO/HEVC
Duration                                 : 3h 5mn
Bit rate                                 : 3 143 Kbps
Width                                    : 1 920 pixels
Height                                   : 816 pixels
Display aspect ratio                     : 2.35:1
Frame rate mode                          : Constant
Frame rate                               : 23.976 (24000/1001) fps
Color space                              : YUV
Chroma subsampling                       : 4:2:0
Bit depth                                : 10 bits
Bits/(Pixel*Frame)                       : 0.084
Stream size                              : 4.06 GiB (87%)
Writing library                          : x265 2.2+29-2f075fe8d4c5:[Windows][MSVC 1910][64 bit] 10bit
Encoding settings                        : cpuid=1173503 / frame-threads=2 / numa-pools=4 / wpp / no-pmode / no-pme / no-psnr / no-ssim / log-level=2 / input-csp=1 / input-res=1920x816 / interlace=0 / total-frames=266272 / level-idc=0 / high-tier=1 / uhd-bd=0 / ref=3 / no-allow-non-conformance / no-repeat-headers / annexb / no-aud / no-hrd / info / hash=0 / no-temporal-layers / open-gop / min-keyint=25 / keyint=250 / bframes=8 / b-adapt=2 / b-pyramid / bframe-bias=0 / rc-lookahead=20 / lookahead-slices=5 / scenecut=40 / no-intra-refresh / ctu=64 / min-cu-size=8 / no-rect / no-amp / max-tu-size=32 / tu-inter-depth=1 / tu-intra-depth=1 / limit-tu=0 / rdoq-level=0 / complex-analysis=0.00 / signhide / no-tskip / nr-intra=0 / nr-inter=0 / no-constrained-intra / strong-intra-smoothing / max-merge=2 / limit-refs=3 / no-limit-modes / me=3 / subme=2 / merange=57 / temporal-mvp / weightp / no-weightb / no-analyze-src-pics / deblock=0:0 / sao / no-sao-non-deblock / rd=3 / no-early-skip / rskip / no-fast-intra / no-tskip-fast / no-cu-lossless / no-b-intra / rdpenalty=0 / psy-rd=2.00 / psy-rdoq=0.00 / no-rd-refine / analysis-mode=0 / no-lossless / cbqpoffs=0 / crqpoffs=0 / rc=2 / bitrate=3142 / qcomp=0.60 / qpstep=4 / stats-write=0 / stats-read=2 / cplxblur=20.0 / qblur=0.5 / ipratio=1.40 / pbratio=1.30 / aq-mode=3 / aq-strength=0.75 / cutree / zone-count=0 / no-strict-cbr / qg-size=32 / no-rc-grain / qpmax=69 / qpmin=0 / sar=0 / overscan=0 / videoformat=5 / range=0 / colorprim=2 / transfer=2 / colormatrix=2 / chromaloc=0 / display-window=0 / max-cll=0,0 / min-luma=0 / max-luma=1023 / log2-max-poc-lsb=8 / vui-timing-info / vui-hrd-info / slices=1 / opt-qp-pps / opt-ref-list-length-pps / no-multi-pass-opt-rps / scenecut-bias=0.05 / no-opt-cu-delta-qp / no-aq-motion
Default                                  : Yes
Forced                                   : No

Audio
ID                                       : 2
Format                                   : AAC
Format/Info                              : Advanced Audio Codec
Format profile                           : LC
Codec ID                                 : A_AAC
Duration                                 : 3h 5mn
Bit rate                                 : 405 Kbps
Channel(s)                               : 6 channels
Channel positions                        : Front: L C R, Side: L R, LFE
Sampling rate                            : 48.0 KHz
Frame rate                               : 46.875 fps (1024 spf)
Compression mode                         : Lossy
Delay relative to video                  : 20ms
Stream size                              : 536 MiB (11%)
Language                                 : Hindi
Default                                  : Yes
Forced                                   : No

Text #1
ID                                       : 3
Format                                   : PGS
Muxing mode                              : zlib
Codec ID                                 : S_HDMV/PGS
Codec ID/Info                            : Picture based subtitle format used on BDs/HD-DVDs
Duration                                 : 3h 0mn
Bit rate                                 : 6 447 bps
Count of elements                        : 2699
Stream size                              : 8.31 MiB (0%)
Language                                 : English
Default                                  : No
Forced                                   : No

Text #2
ID                                       : 4
Format                                   : PGS
Muxing mode                              : zlib
Codec ID                                 : S_HDMV/PGS
Codec ID/Info                            : Picture based subtitle format used on BDs/HD-DVDs
Duration                                 : 3h 0mn
Bit rate                                 : 4 546 bps
Count of elements                        : 2699
Stream size                              : 5.86 MiB (0%)
Language                                 : Arabic
Default                                  : No
Forced                                   : No

Text #3
ID                                       : 5
Format                                   : PGS
Muxing mode                              : zlib
Codec ID                                 : S_HDMV/PGS
Codec ID/Info                            : Picture based subtitle format used on BDs/HD-DVDs
Duration                                 : 3h 0mn
Bit rate                                 : 6 618 bps
Count of elements                        : 2712
Stream size                              : 8.53 MiB (0%)
Language                                 : Dutch
Default                                  : No
Forced                                   : No

Text #4
ID                                       : 6
Format                                   : PGS
Muxing mode                              : zlib
Codec ID                                 : S_HDMV/PGS
Codec ID/Info                            : Picture based subtitle format used on BDs/HD-DVDs
Duration                                 : 3h 0mn
Bit rate                                 : 7 358 bps
Count of elements                        : 2736
Stream size                              : 9.49 MiB (0%)
Language                                 : French
Default                                  : No
Forced                                   : No

Text #5
ID                                       : 7
Format                                   : PGS
Muxing mode                              : zlib
Codec ID                                 : S_HDMV/PGS
Codec ID/Info                            : Picture based subtitle format used on BDs/HD-DVDs
Duration                                 : 3h 0mn
Bit rate                                 : 3 427 bps
Count of elements                        : 2699
Stream size                              : 4.42 MiB (0%)
Language                                 : Hebrew
Default                                  : No
Forced                                   : No

Text #6
ID                                       : 8
Format                                   : PGS
Muxing mode                              : zlib
Codec ID                                 : S_HDMV/PGS
Codec ID/Info                            : Picture based subtitle format used on BDs/HD-DVDs
Duration                                 : 3h 0mn
Bit rate                                 : 7 905 bps
Count of elements                        : 2723
Stream size                              : 10.2 MiB (0%)
Default                                  : No
Forced                                   : No

Text #7
ID                                       : 9
Format                                   : PGS
Muxing mode                              : zlib
Codec ID                                 : S_HDMV/PGS
Codec ID/Info                            : Picture based subtitle format used on BDs/HD-DVDs
Duration                                 : 3h 0mn
Bit rate                                 : 7 197 bps
Count of elements                        : 2716
Stream size                              : 9.28 MiB (0%)
Language                                 : Portuguese
Default                                  : No
Forced                                   : No

Text #8
ID                                       : 10
Format                                   : PGS
Muxing mode                              : zlib
Codec ID                                 : S_HDMV/PGS
Codec ID/Info                            : Picture based subtitle format used on BDs/HD-DVDs
Duration                                 : 3h 0mn
Bit rate                                 : 7 617 bps
Count of elements                        : 2737
Stream size                              : 9.82 MiB (0%)
Language                                 : Spanish
Default                                  : No
Forced                                   : No
Category:Movies > HEVC
Lang:Hindi
Total Size:4.71 GB
Info Hash:0031763e92d57b23f062fbef5e91d84acfa7f295
Added By:Unknown
Date Added:23-10-2017 22:09:42
Downloads:260

Ratings:Not Yet Rated (Log in to rate it)


Tracker:
udp://tracker.opentrackr.org:1337/announce


File List: 


Comments

No comments still posted

Top
Copyright 2018 DownloadHD -|- Page Generated In 1.111834 secs.
-|- RSS Feed -|- Feed Info
Triumph Magic Spacer Deep V Wired Push Up Bra / Triumph / Bra / Woman Wear | Eng 101 - a Cup of Tea and Miss Brill | Watch Now