Login
Username:
Password:
[Signup]
[Recover Account]


Browse Torrents

Poll


You must be logged in to view polls



Latest Torrents
Jonathan.2018.HDRi...
- [Size: 1.37 GB]

Villain (2018) Ben...
- [Size: 558.96 MB]

Villain (2018) Ben...
- [Size: 1.49 GB]

Mirzapur (2018) Se...
- [Size: 3.39 GB]

The.Daily.Show.201...
- [Size: 311.67 MB]


Torrent Details For "Dukhtar 2014 Bluray 1080p 10bit x265 5.1 AAC HEVC Natty"

Dukhtar 2014 Bluray 1080p 10bit x265 5.1 AAC HEVC Natty

Download this torrent | Magnet Download
Health:
Seeds: 0
Leechers: 0
Completed:
Last Checked: 14-11-2018 10:40:10
External Torrent
Update Stats



Images Host

Poster


iMDB
Imdb Picture Title: Dukhtar
Year: 2014
Runtime: 93 minutes
Votes: 1602
Rating: 7.1/10
Language: Urdu, Pushto
Country: Pakistan, Norway, USA
All Genres: Drama, Thriller
Plot Outline: In the mountains of Pakistan, a mother and her ten-year-old daughter flee their home on the eve of the girl's marriage to a tribal leader. A deadly hunt for them begins.
Director: Afia Nathaniel
Writing By: Afia Nathaniel,
Produced By: Carsten Aanonsen,Muhammad Khalid Ali,Muhammad Asghar,Thea Kerman,Khalid Mushtaq,Afia Nathaniel,Muhammad Nadeem Nawaz,Shrihari Sathe,Zinnia Sheikh,Cordelia Stephens,Noman Waheed,Ahsan Zaman,
Music: Sahir Ali Bagga Peter Nashel
Plot:

Two family clans (here just called A and B) who had a long history of hostility agreed to bury their hostility. One central point of the agreement is that the youngest girl of A (who has not really a trustworthy young male escape. After some time they feel (correctly) that their present hiding place is not safe enough, and they make a second reached puberty) will marry the oldest man of B. The girl, her mother and escape. Here they are safe and this place is never found out. But in a town there will be a large festival. In view of the many years mother and daughter had lived without fear they take the chance and go to this town. But the B clan had expected that.

- Written by Max Scharnberg, Stockholm, Sweden

In the mountains of Pakistan, a mother and her ten-year-old daughter flee their home on the eve of the girl's marriage to a tribal leader. A deadly hunt for them begins.

- Written by Anonymous
Cast:
Samiya Mumtaz as Allah Rakhi
Mohib Mirza as Sohail
Saleha Aref as Zainab
Asif Khan as Daulat Khan
Ajab Gul as Shehbaz Khan
Adnan Shah as Ghorzang Khan
Abdullah Jan as Tor Gul / Hikmatullah
Samina Ahmad as Rukhsana
Omair Rana as Zarak Khan
Zeeshan Shafa as Mir Azam Khan


Watch-Free-HD     Download

Details
Name:Dukhtar 2014 Bluray 1080p 10bit x265 5.1 AAC HEVC Natty
Description:
**** MY FIRST x265 ENCODE of a Movie****

Dukhar 2014 in 1080p, encoded with x265 (HEVC) and AAC 5.1 Urdu + English Commentary with subtitles!
Encoded using the time consuming 2 pass, 10 bit color at 3000 kbps, from an Untouched Bluray source, for the highest quality possible.  :Qsmiley:


Encode Media Info :-
General
Complete name           : D:\Encodes\Dukhtar 2014 BD25\Dukhtar_2014_BD25_t00_new.mkv
Format                  : Matroska
Format version          : Version 4 / Version 2
File size               : 2.83 GiB
Duration                : 1h 33mn
Overall bit rate mode   : Variable
Overall bit rate        : 4 348 Kbps
Movie name              : Dukhtar 2014 BD25
Encoded date            : UTC 2017-01-03 07:22:18
Writing application     : mkvmerge v9.6.0 ('Slave To Your Mind') 64bit
Writing library         : libebml v1.3.4 + libmatroska v1.4.5

Video
ID                      : 1
Format                  : HEVC
Format/Info             : High Efficiency Video Coding
Format profile          : Main [email protected]@Main
Codec ID                : V_MPEGH/ISO/HEVC
Duration                : 1h 33mn
Bit rate                : 2 927 Kbps
Width                   : 1 920 pixels
Height                  : 816 pixels
Display aspect ratio    : 2.35:1
Frame rate mode         : Constant
Frame rate              : 23.976 (24000/1001) fps
Color space             : YUV
Chroma subsampling      : 4:2:0
Bit depth               : 10 bits
Bits/(Pixel*Frame)      : 0.078
Stream size             : 1.91 GiB (67%)
Writing library         : x265 2.1+72-ce19aaa0637d:[Windows][GCC 6.2.0][64 bit] 10bit
Encoding settings       : cpuid=1173503 / frame-threads=2 / numa-pools=4 / wpp / no-pmode / no-pme / no-psnr / no-ssim / log-level=2 / input-csp=1 / input-res=1920x816 / interlace=0 / total-frames=134246 / level-idc=0 / high-tier=1 / uhd-bd=0 / ref=3 / no-allow-non-conformance / no-repeat-headers / annexb / no-aud / no-hrd / info / hash=0 / no-temporal-layers / open-gop / min-keyint=25 / keyint=250 / bframes=10 / b-adapt=2 / b-pyramid / bframe-bias=0 / rc-lookahead=20 / lookahead-slices=5 / scenecut=40 / no-intra-refresh / ctu=64 / min-cu-size=8 / no-rect / no-amp / max-tu-size=32 / tu-inter-depth=1 / tu-intra-depth=1 / limit-tu=0 / rdoq-level=0 / signhide / no-tskip / nr-intra=0 / nr-inter=0 / no-constrained-intra / strong-intra-smoothing / max-merge=2 / limit-refs=3 / no-limit-modes / me=3 / subme=2 / merange=57 / temporal-mvp / weightp / no-weightb / no-analyze-src-pics / deblock=0:0 / sao / no-sao-non-deblock / rd=3 / no-early-skip / rskip / no-fast-intra / no-tskip-fast / no-cu-lossless / no-b-intra / rdpenalty=0 / psy-rd=2.00 / psy-rdoq=0.00 / no-rd-refine / analysis-mode=0 / no-lossless / cbqpoffs=0 / crqpoffs=0 / rc=2 / bitrate=2927 / qcomp=0.60 / qpstep=4 / stats-write=0 / stats-read=2 / cplxblur=20.0 / qblur=0.5 / ipratio=1.40 / pbratio=1.30 / aq-mode=3 / aq-strength=0.60 / cutree / zone-count=0 / no-strict-cbr / qg-size=32 / no-rc-grain / qpmax=69 / qpmin=0 / sar=0 / overscan=0 / videoformat=5 / range=0 / colorprim=2 / transfer=2 / colormatrix=2 / chromaloc=0 / display-window=0 / max-cll=0,0 / min-luma=0 / max-luma=1023 / log2-max-poc-lsb=8 / vui-timing-info / vui-hrd-info / slices=1 / opt-qp-pps / opt-ref-list-length-pps / no-multi-pass-opt-rps / scenecut-bias=0.05
Default                 : Yes
Forced                  : No

Audio #2
ID                                       : 3
Format                                   : AAC
Format/Info                              : Advanced Audio Codec
Format profile                           : HE-AAC / LC
Codec ID                                 : A_AAC
Duration                                 : 1h 33mn
Bit rate                                 : 82.1 Kbps
Channel(s)                               : 2 channels
Channel positions                        : Front: L R
Sampling rate                            : 48.0 KHz / 24.0 KHz
Frame rate                               : 23.438 fps (1024 spf)
Compression mode                         : Lossy
Delay relative to video                  : 40ms
Stream size                              : 54.8 MiB (2%)
Language                                 : English
Default                                  : No
Forced                                   : No

Audio #1
ID                      : 3
Format                  : AAC
Format/Info             : Advanced Audio Codec
Format profile          : LC
Codec ID                : A_AAC
Duration                : 1h 33mn
Bit rate                : 339 Kbps
Channel(s)              : 6 channels
Channel positions       : Front: L C R, Side: L R, LFE
Sampling rate           : 48.0 KHz
Frame rate              : 46.875 fps (1024 spf)
Compression mode        : Lossy
Delay relative to video : 20ms
Stream size             : 226 MiB (8%)
Language                : Urdu
Default                 : No
Forced                  : No

Text
ID                                       : 4
Format                                   : UTF-8
Codec ID                                 : S_TEXT/UTF8
Codec ID/Info                            : UTF-8 Plain Text
Duration                                 : 1h 29mn
Bit rate                                 : 101 bps
Count of elements                        : 2188
Stream size                              : 66.3 KiB (0%)
Language                                 : English
Default                                  : Yes
Forced                                   : No


Source :-

Physical Bluray Disc
General
Complete name                    : D:\Encodes\Dukhtar 2014 BD25\Dukhtar_2014_BD25_t00.mkv
Format                           : Matroska
Format version                   : Version 2
File size                        : 16.5 GiB
Duration                         : 1h 33mn
Overall bit rate                 : 25.2 Mbps
Movie name                       : Dukhtar 2014 BD25
Encoded date                     : UTC 2016-12-22 20:36:13
Writing application              : MakeMKV v1.10.3 win(x64-release)
Writing library                  : libmakemkv v1.10.3 (1.3.3/1.4.4) win(x64-release)
Original source medium           : Blu-ray

Video
ID                               : 1
ID in the original source medium : 4113 (0x1011)
Format                           : AVC
Format/Info                      : Advanced Video Codec
Format profile                   : [email protected]
Format settings, CABAC           : Yes
Format settings, ReFrames        : 4 frames
Codec ID                         : V_MPEG4/ISO/AVC
Duration                         : 1h 33mn
Bit rate mode                    : Constant
Bit rate                         : 23.5 Mbps
Nominal bit rate                 : 25.0 Mbps
Width                            : 1 920 pixels
Height                           : 1 080 pixels
Display aspect ratio             : 16:9
Frame rate mode                  : Constant
Frame rate                       : 23.976 (24000/1001) fps
Color space                      : YUV
Chroma subsampling               : 4:2:0
Bit depth                        : 8 bits
Scan type                        : Progressive
Bits/(Pixel*Frame)               : 0.472
Stream size                      : 15.3 GiB (93%)
Language                         : English
Default                          : No
Forced                           : No

Audio #1
ID                               : 2
ID in the original source medium : 4353 (0x1101)
Format                           : DTS
Format/Info                      : Digital Theater Systems
Mode                             : 16
Format settings, Endianness      : Big
Codec ID                         : A_DTS
Duration                         : 1h 33mn
Bit rate mode                    : Constant
Bit rate                         : 1 509 Kbps
Channel(s)                       : 6 channels
Channel positions                : Front: L C R, Side: L R, LFE
Sampling rate                    : 48.0 KHz
Frame rate                       : 93.750 fps (512 spf)
Bit depth                        : 24 bits
Compression mode                 : Lossy
Stream size                      : 1 005 MiB (6%)
Title                            : Surround 5.1
Language                         : Urdu
Default                          : Yes
Forced                           : No

Audio #2
ID                               : 3
ID in the original source medium : 4354 (0x1102)
Format                           : AC-3
Format/Info                      : Audio Coding 3
Mode extension                   : CM (complete main)
Format settings, Endianness      : Big
Codec ID                         : A_AC3
Duration                         : 1h 33mn
Bit rate mode                    : Constant
Bit rate                         : 224 Kbps
Channel(s)                       : 2 channels
Channel positions                : Front: L R
Sampling rate                    : 48.0 KHz
Frame rate                       : 31.250 fps (1536 spf)
Compression mode                 : Lossy
Stream size                      : 150 MiB (1%)
Title                            : Stereo
Language                         : English
Default                          : No
Forced                           : No

Text #1
ID                               : 4
ID in the original source medium : 4608 (0x1200)
Format                           : PGS
Codec ID                         : S_HDMV/PGS
Codec ID/Info                    : Picture based subtitle format used on BDs/HD-DVDs
Duration                         : 1h 16mn
Bit rate                         : 48.7 Kbps
Count of elements                : 2078
Stream size                      : 26.6 MiB (0%)
Language                         : English
Default                          : No
Forced                           : No

Text #2
ID                               : 5
ID in the original source medium : 4608 (0x1200)
Format                           : PGS
Codec ID                         : S_HDMV/PGS
Codec ID/Info                    : Picture based subtitle format used on BDs/HD-DVDs
Duration                         : 17mn 7s
Bit rate                         : 19.2 Kbps
Count of elements                : 4
Stream size                      : 2.35 MiB (0%)
Language                         : English
Default                          : Yes
Forced                           : No

PLEASE SEED IF YOU WANT ME TO UPLOAD MORE  :Qpirate:
Category:Movies > HEVC
Lang:Urdu
Total Size:2.25 GB
Info Hash:0b2b194fe8b55e36088298f9f15107d62e7efbac
Added By:Unknown
Date Added:23-10-2017 22:09:08
Downloads:182

Ratings:Not Yet Rated (Log in to rate it)


Tracker:
udp://tracker.opentrackr.org:1337/announce


File List: 


Comments

No comments still posted

Top
Copyright 2018 DownloadHD -|- Page Generated In 0.140523 secs.
-|- RSS Feed -|- Feed Info