Login
Username:
Password:
[Signup]
[Recover Account]


Browse Torrents

Poll


You must be logged in to view polls



Latest Torrents
Batti Gul Meter Ch...
- [Size: 1.54 GB]

James.Corden.2018....
- [Size: 627.02 MB]

Stephen.Colbert.20...
- [Size: 649.06 MB]

The.Domestics.2018...
- [Size: 705.94 MB]

Tell.Me.A.Story.US...
- [Size: 243.05 MB]


Torrent Details For "Resident.Evil.The.Final.Chapter.2016.2160p.BluRay.x265.10bit.SDR.DTS-HD.MA.TrueHD.7.1.Atmos-SWT..."

Resident.Evil.The.Final.Chapter.2016.2160p.BluRay.x265.10bit.SDR.DTS-HD.MA.TrueHD.7.1.Atmos-SWT...

Download this torrent | Magnet Download
Health:
Seeds: 0
Leechers: 2
Completed:
Last Checked: 30-08-2018 14:10:14
External Torrent
Update Stats



Images Host

Poster


iMDB
Imdb Picture Title: Resident Evil: The Final Chapter
Year: 2016
Runtime: 106 minutes
Votes: 42514
Rating: 5.6/10
Language: English
Country: USA, Germany, France, UK, Japan, Canada, South Africa, Australia
All Genres: Action, Horror, Sci-Fi, Thriller
Plot Outline: Alice returns to where the nightmare began: The Hive in Raccoon City, where the Umbrella Corporation is gathering its forces for a final strike against the only remaining survivors of the apocalypse.
Tagline: Everything has led to this.
Director: Paul W.S. Anderson
Writing By: Paul W.S. Anderson,
Produced By: Paul W.S. Anderson,Jeremy Bolt,Samuel Hadida,Victor Hadida,Genevieve Hofmeyr,Hiroyuki Kobayashi,Robert Kulzer,Martin Moszkowicz,Bernhard Thür,Janine van Assen,
Music: Paul Haslinger
Plot:

Picking up immediately after the events in Resident Evil: Retribution, Alice (Milla Jovovich) is the only survivor of what was meant to be humanity's final stand against the undead. Now, she must return to where the nightmare began - The Hive in Raccoon City, where the Umbrella Corporation is gathering its forces for a final strike against the only remaining survivors of the apocalypse.

- Written by Screen Gems / Constantin

Alice receives crucial information about the imminent elimination of the rest of humanity from an unlikely source and with the help of a few survivors embarks on a perilous journey to The Hive in Raccoon City to stop it, all the while fighting off infected creatures as well as agents of the Umbrella Corporation.

- Written by simonsaysulose

Alice returns to where the nightmare began: The Hive in Raccoon City, where the Umbrella Corporation is gathering its forces for a final strike against the only remaining survivors of the apocalypse.

- Written by Anonymous
Cast:
Milla Jovovich as Alice / Alicia Marcus
Iain Glen as Dr. Isaacs
Ali Larter as Claire Redfield
Shawn Roberts as Wesker
Eoin Macken as Doc
Fraser James as Razor
Ruby Rose as Abigail
William Levy as Christian
Rola as Cobalt
Ever Anderson as Young Alicia / Red Queen
Trailers:
International Trailer
Official Trailer
Trailer #1


Watch-Free-HD     Download

Details
Name:Resident.Evil.The.Final.Chapter.2016.2160p.BluRay.x265.10bit.SDR.DTS-HD.MA.TrueHD.7.1.Atmos-SWT...
Description:
MediaInfo


Video
ID                                       : 1
Format                                   : HEVC
Format/Info                              : High Efficiency Video Coding
Format profile                           : Main [email protected]@High
Codec ID                                 : V_MPEGH/ISO/HEVC
Duration                                 : 1 h 46 min
Bit rate                                 : 19.6 Mb/s
Width                                    : 3 840 pixels
Height                                   : 1 600 pixels
Display aspect ratio                     : 2.40:1
Frame rate mode                          : Constant
Frame rate                               : 23.976 (24000/1001) FPS
Color space                              : YUV
Chroma subsampling                       : 4:2:0
Bit depth                                : 10 bits
Bits/(Pixel*Frame)                       : 0.133
Stream size                              : 14.6 GiB (64%)
Title                                    : Resident.Evil.The.Final.Chapter.2016.2160p.BluRay.x265.10bit.SDR.DTS-HD.MA.TrueHD.7.1.Atmos-SWTYBLZ
Writing library                          : x265 2.5+4-b4a5bcfe29c7:[Windows][GCC 4.9.3][64 bit] 10bit
Encoding settings                        : cpuid=1173503 / frame-threads=16 / numa-pools=24,24,24,24 / wpp / no-pmode / no-pme / no-psnr / no-ssim / log-level=2 / input-csp=1 / input-res=3840x1600 / interlace=0 / total-frames=0 / level-idc=51 / high-tier=1 / uhd-bd=0 / ref=3 / no-allow-non-conformance / repeat-headers / annexb / aud / hrd / info / hash=0 / no-temporal-layers / no-open-gop / min-keyint=1 / keyint=24 / bframes=4 / b-adapt=2 / b-pyramid / bframe-bias=0 / rc-lookahead=25 / lookahead-slices=4 / scenecut=40 / no-intra-refresh / ctu=64 / min-cu-size=8 / no-rect / no-amp / max-tu-size=32 / tu-inter-depth=1 / tu-intra-depth=1 / limit-tu=0 / rdoq-level=0 / dynamic-rd=0.00 / no-ssim-rd / signhide / no-tskip / nr-intra=0 / nr-inter=0 / no-constrained-intra / strong-intra-smoothing / max-merge=2 / limit-refs=3 / no-limit-modes / me=1 / subme=2 / merange=57 / temporal-mvp / weightp / no-weightb / no-analyze-src-pics / deblock=0:0 / no-sao / no-sao-non-deblock / rd=3 / no-early-skip / rskip / no-fast-intra / no-tskip-fast / no-cu-lossless / no-b-intra / rdpenalty=0 / psy-rd=2.00 / psy-rdoq=0.00 / no-rd-refine / analysis-reuse-mode=0 / no-lossless / cbqpoffs=0 / crqpoffs=0 / rc=crf / crf=16.0 / qcomp=0.60 / qpstep=4 / stats-write=0 / stats-read=0 / vbv-maxrate=160000 / vbv-bufsize=160000 / vbv-init=0.9 / crf-max=0.0 / crf-min=0.0 / ipratio=1.40 / pbratio=1.30 / aq-mode=1 / aq-strength=1.00 / cutree / zone-count=0 / no-strict-cbr / qg-size=32 / no-rc-grain / qpmax=69 / qpmin=0 / no-const-vbv / sar=1 / overscan=0 / videoformat=5 / range=0 / colorprim=2 / transfer=2 / colormatrix=2 / chromaloc=0 / display-window=0 / max-cll=0,0 / min-luma=0 / max-luma=1023 / log2-max-poc-lsb=8 / vui-timing-info / vui-hrd-info / slices=1 / opt-qp-pps / opt-ref-list-length-pps / no-multi-pass-opt-rps / scenecut-bias=0.05 / no-opt-cu-delta-qp / no-aq-motion / no-hdr / no-hdr-opt / no-dhdr10-opt / analysis-reuse-level=5 / scale-factor=0 / refine-intra=0 / refine-inter=0 / refine-mv=0 / no-limit-sao / ctu-info=0
Language                                 : English
Default                                  : Yes
Forced                                   : No

Audio #1
ID                                       : 2
Format                                   : TrueHD
Format profile                           : TrueHD+Atmos / TrueHD
Codec ID                                 : A_TRUEHD
Duration                                 : 1 h 46 min
Bit rate mode                            : Variable
Bit rate                                 : 5 532 kb/s
Maximum bit rate                         : 8 673 kb/s
Channel(s)                               : Object Based / 8 channels
Channel positions                        : Object Based / Front: L C R, Side: L R, Back: L R, LFE
Sampling rate                            :  / 48.0 kHz
Frame rate                               : 1 200.000 FPS (40 spf)
Compression mode                         : Lossless
Stream size                              : 4.12 GiB (18%)
Title                                    : Resident.Evil.The.Final.Chapter.2016.2160p.BluRay.x265.10bit.SDR.DTS-HD.MA.TrueHD.7.1.Atmos-SWTYBLZ
Language                                 : English
Default                                  : Yes
Forced                                   : No

Audio #2
ID                                       : 3
Format                                   : DTS
Format/Info                              : Digital Theater Systems
Format profile                           : MA / Core
Mode                                     : 16
Format settings, Endianness              : Big
Codec ID                                 : A_DTS
Duration                                 : 1 h 46 min
Bit rate mode                            : Variable / Constant
Bit rate                                 : 4 359 kb/s / 1 509 kb/s
Channel(s)                               : 8 channels / 6 channels
Channel positions                        : Front: L C R, Side: L R, Back: L R, LFE / Front: L C R, Side: L R, LFE
Sampling rate                            : 48.0 kHz
Frame rate                               : 93.750 FPS (512 spf)
Bit depth                                : 24 bits
Compression mode                         : Lossless / Lossy
Stream size                              : 3.24 GiB (14%)
Title                                    : Resident.Evil.The.Final.Chapter.2016.2160p.BluRay.x265.10bit.SDR.DTS-HD.MA.TrueHD.7.1.Atmos-SWTYBLZ
Language                                 : English
Default                                  : No
Forced                                   : No

Audio #3
ID                                       : 4
Format                                   : AC-3
Format/Info                              : Audio Coding 3
Format settings, Endianness              : Big
Codec ID                                 : A_AC3
Duration                                 : 1 h 46 min
Bit rate mode                            : Constant
Bit rate                                 : 640 kb/s
Channel(s)                               : 6 channels
Channel positions                        : Front: L C R, Side: L R, LFE
Sampling rate                            : 48.0 kHz
Frame rate                               : 31.250 FPS (1536 spf)
Bit depth                                : 16 bits
Compression mode                         : Lossy
Stream size                              : 488 MiB (2%)
Title                                    : Resident.Evil.The.Final.Chapter.2016.2160p.BluRay.x265.10bit.SDR.DTS-HD.MA.TrueHD.7.1.Atmos-SWTYBLZ
Language                                 : English
Service kind                             : Complete Main
Default                                  : No
Forced                                   : No

SUBTITLES:

Codec                           Language        Bitrate         Description    
-----                           --------        -------         -----------    
Presentation Graphics           English         30.228 kbps                    
Presentation Graphics           English         23.185 kbps                    
Presentation Graphics           English         30.169 kbps                    
Presentation Graphics           English         23.164 kbps                    
Presentation Graphics           Arabic          10.841 kbps                    
Presentation Graphics           Chinese         17.425 kbps                    
Presentation Graphics           Chinese         18.536 kbps                    
Presentation Graphics           Chinese         17.865 kbps                    
Presentation Graphics           Czech           22.449 kbps                    
Presentation Graphics           Danish          23.451 kbps                    
Presentation Graphics           Dutch           21.361 kbps                    
Presentation Graphics           Estonian        20.832 kbps                    
Presentation Graphics           Finnish         23.576 kbps                    
Presentation Graphics           French          20.198 kbps                    
Presentation Graphics           Greek           25.462 kbps                    
Presentation Graphics           Italian         23.623 kbps                    
Presentation Graphics           Korean          15.394 kbps                    
Presentation Graphics           Latvian         20.511 kbps                    
Presentation Graphics           Lithuanian      22.285 kbps                    
Presentation Graphics           Norwegian       23.388 kbps                    
Presentation Graphics           Polish          21.698 kbps                    
Presentation Graphics           Portuguese      24.4 kbps                      
Presentation Graphics           Portuguese      25.26 kbps                      
Presentation Graphics           Romanian        22.538 kbps                    
Presentation Graphics           Russian         23.876 kbps                    
Presentation Graphics           Slovak          21.162 kbps                    
Presentation Graphics           Spanish         23.335 kbps                    
Presentation Graphics           Spanish         22.532 kbps                    
Presentation Graphics           Swedish         21.514 kbps                    
Presentation Graphics           Thai            18.521 kbps                    
Presentation Graphics           Turkish         23.503 kbps                    
Presentation Graphics           French          0.461 kbps


 
 
 
 
 
 
Category:Movies > 4K/UHD
Lang:English  English
Total Size:22.99 GB
Info Hash:596831c61f8baa947a4808debf3387cb16cf3fd9
Added By:Scene
Date Added:20-10-2017 19:06:02
Downloads:189

Ratings:Not Yet Rated (Log in to rate it)


Tracker:
http://tracker.trackerfix.com:80/announce


File List: 


Comments

No comments still posted

Top
Copyright 2018 DownloadHD -|- Page Generated In 0.308846 secs.
-|- RSS Feed -|- Feed Info
Star-Crossed streaming | Ghostland Ghostland (2018) Horror, Mystery, Thriller, DramaColleen bezieht mit ihren Töchtern Beth und Vera das alte leerstehende Haus ihrer verstorbenen Tante. Noch in der ersten Nacht werden sie von brutalen Einbrechern in ihrem neuen Heim überfallen. Das Trauma sitzt tief und prägt die Schwestern bis ins Erwachsenenalter. Beth hat mit dem Schreiben von Horrorlitaratur ihre eigene Bewältigungsstrategie gefunden. Vera hingegen lebt immer noch bei ihrer Mutter im alten Haus, leidet an paranoiden Wahnvorstellungen und verliert zunehmend den Verstand. Nach 16 Jahren geht Beth an den Ort des schrecklichen Vorfalls zurück – was sich aber als Fehler erweist ... | Download XAPK