Login
Username:
Password:
[Signup]
[Recover Account]


Browse Torrents

Poll


You must be logged in to view polls



Latest Torrents
Villain (2018) Ben...
- [Size: 558.96 MB]

Villain (2018) Ben...
- [Size: 1.49 GB]

Mirzapur (2018) Se...
- [Size: 3.39 GB]

The.Daily.Show.201...
- [Size: 311.67 MB]

How.to.Get.Away.wi...
- [Size: 1.17 GB]


Torrent Details For "Firebreather 2010 720p Esub BluRay Dual Audio English Hindi GOPISAHI"

Firebreather 2010 720p Esub BluRay Dual Audio English Hindi GOPISAHI

Download this torrent | Magnet Download
Health:
Seeds: 0
Leechers: 2
Completed: 568 
Last Checked: 25-02-2018 16:05:00
External Torrent
Update Stats



Images Host

Poster


iMDB
Imdb Picture Title: Firebreather
Year: 2010
Runtime: 90 minutes
Votes: 1270
Rating: 6.2/10
Language: English
Country: USA
All Genres: Animation, Action, Fantasy
Plot Outline: All Duncan wants is to be a normal kid in a normal school. Until he realizes he is something very far away from normal.
Director: Peter Chung
Writing By: Phil Hester,James Krieg,Andy Kuhn,
Produced By: Vincent Aniceto,Peter Chung,Brian A. Miller,Ramsey Ann Naito,Jennifer Pelphrey,Julia Pistor,Carrie Wilksen,
Music: Toby Chu
Cast:
Tia Texada as Isabel
Jesse Head as Duncan Rosenblatt
Dante Basco as Kenny Rogers
Amy Davidson as Jenna
Dana Delany as Margaret Rosenblatt
Grey DeLisle as Ms. Dreakford
Reed Diamond as Barnes
Billy Evans as Steve
Josh Keaton as Troy
Jameson Moss as Big Rob


Watch-Free-HD     Download

Details
Name:Firebreather 2010 720p Esub BluRay Dual Audio English Hindi GOPISAHI
Description:

Format                         : Matroska
Format version                 : Version 4 / Version 2
File size                      : 535 MiB
Duration                       : 1 h 9 min
Overall bit rate               : 1 082 kb/s
Movie name                     : Firebreather 2010

Video
Format                         : AVC
Codec ID                       : V_MPEG4/ISO/AVC
Duration                       : 1 h 9 min
Bit rate                       : 800 kb/s
Width                          : 1 280 pixels
Height                         : 720 pixels
Display aspect ratio           : 16:9
Frame rate mode                : Constant
Frame rate                     : 23.976 (24000/1001) FPS
Stream size                    : 395 MiB (74%)
Writing library                : x264

Audio #1
Format                         : AAC
Duration                       : 1 h 9 min
Bit rate                       : 174 kb/s
Channel(s)                     : 6 channels
Channel positions              : Front: L C R, Side: L R, LFE
Sampling rate                  : 44.1 kHz
Frame rate                     : 43.066 FPS (1024 SPF)
Stream size                    : 86.2 MiB (16%)
Language                       : English

Audio #2
Format                         : AAC
Duration                       : 1 h 9 min
Bit rate                       : 106 kb/s
Channel(s)                     : 2 channels
Channel positions              : Front: L R
Sampling rate                  : 44.1 kHz
Frame rate                     : 43.066 FPS (1024 SPF)
Stream size                    : 52.2 MiB (10%)
Language                       : Hindi

Text
Language                       : English


Category:Movies > Hollywood Dub
Lang:Hindi
Total Size:534.94 MB
Info Hash:586a8a911f788149594e8387d34a65c1f62ba838
Added By:gopisahi
Date Added:20-10-2017 11:32:02
Downloads:226

Ratings:Not Yet Rated (Log in to rate it)


Tracker:
http://ipv4.tracker.harry.lu/announce

This Torrent also has backup trackers
URLSeedersLeechersCompleted
http://ipv4.tracker.harry.lu/announce1510
http://ipv4.tracker.harry.lu:80/announce1510
http://163.172.180.68:80/announce1510
http://t.nyaatracker.com/announce1430
http://tracker.devil-torrents.pl:80/announce1460
http://tracker.devil-torrents.pl/announce1460
http://open.kickasstracker.com/announce000
http://163.172.180.68/announce1510
http://t.nyaatracker.com:80/announce1430
http://retracker.mgts.by:80/announce0012
http://45.33.11.224/announce1430
http://tracker.torrentyorg.pl:80/announce1390
http://pt.lax.mx:80/announce000


File List: 


Comments

No comments still posted

Top
Copyright 2018 DownloadHD -|- Page Generated In 0.631643 secs.
-|- RSS Feed -|- Feed Info