Login
Username:
Password:
[Signup]
[Recover Account]


Browse Torrents

Poll


You must be logged in to view polls



Latest Torrents
Blood.UK.S01E01E02...
- [Size: 387.18 MB]

Hero No Zero 3 (Ma...
- [Size: 638.09 MB]

Chalbaaz (2018) Sa...
- [Size: 699.80 MB]

Bodhon [2017] Beng...
- [Size: 583.86 MB]

Munni Metric Pass ...
- [Size: 591.77 MB]


Torrent Details For "Bushwick.2017.720p.BRRip.XviD.AC3-RARBG"

Bushwick.2017.720p.BRRip.XviD.AC3-RARBG

Download this torrent | Magnet Download
Health:
Seeds: 0
Leechers: 6
Completed:
Last Checked: 14-10-2017 16:50:01
External Torrent
Update Stats



Images Host

Poster


iMDB
Imdb Picture Title: Bushwick
Year: 2017
Runtime: 94 minutes
Votes: 212
Rating: 6.3/10
Language: English
Country: USA
All Genres: Action, Adventure
Plot Outline: When a Texas military force invades their Brooklyn neighborhood, 20-year-old Lucy and war veteran Stupe must depend on each other to survive.
Director: Cary Murnion
Jonathan Milott
Writing By: Nick Damici,Graham Reznick,
Produced By: Dave Bautista,Jolian Blevins,Nate Bolotin,Adam Folk,Jonathan Meisner,Joseph Mensch,
Music: Aesop Rock
Plot:

BUSHWICK tells the story of twenty-year- old Lucy (Snow) and war veteran Stupe (Bautista). Texas is trying to secede from the U.S., and NYC is being used as a negotiation tool. Lucy meets Stupe after coming up from the subway into the military invasion of Brooklyn. Together they decide to cross the treacherous five blocks of Bushwick - littered with looters, local militias, the invading forces, and one crazy cousin - in order to get home and be reunited with Lucy's grandmother.

When a Texas military force invades their Brooklyn neighborhood, 20-year-old Lucy and war veteran Stupe must depend on each other to survive.


Cast:
Dave Bautista as Stupe
Brittany Snow as Lucy
Christian Navarro as Eduardo
Arturo Castro as Jose
Jeremie Harris as JP
Angelic Zambrana as Belinda
Jay Hieron as Resistance fighter
Leo Minaya as Hector
Jeff Lima as Gregory
Alex Breaux as Lt. Quaid
Trailers:
Official Trailer


Watch-Free-HD     Download

Details
Name:Bushwick.2017.720p.BRRip.XviD.AC3-RARBG
Description:
MediaInfo

Video
ID                                       : 0
Format                                   : MPEG-4 Visual
Format profile                           : [email protected]
Format settings, BVOP                    : No
Format settings, QPel                    : No
Format settings, GMC                     : No warppoints
Format settings, Matrix                  : Default (H.263)
Codec ID                                 : XVID
Codec ID/Hint                            : XviD
Duration                                 : 1 h 33 min
Bit rate                                 : 3 795 kb/s
Width                                    : 1 280 pixels
Height                                   : 534 pixels
Display aspect ratio                     : 2.40:1
Frame rate                               : 23.976 (24000/1001) FPS
Color space                              : YUV
Chroma subsampling                       : 4:2:0
Bit depth                                : 8 bits
Scan type                                : Progressive
Compression mode                         : Lossy
Bits/(Pixel*Frame)                       : 0.232
Stream size                              : 2.48 GiB (85%)
Writing library                          : Lavc57.89.100

Audio
ID                                       : 1
Format                                   : AC-3
Format/Info                              : Audio Coding 3
Format settings, Endianness              : Big
Codec ID                                 : 2000
Duration                                 : 1 h 33 min
Bit rate mode                            : Constant
Bit rate                                 : 640 kb/s
Channel(s)                               : 6 channels
Channel positions                        : Front: L C R, Side: L R, LFE
Sampling rate                            : 48.0 kHz
Frame rate                               : 31.250 FPS (1536 SPF)
Bit depth                                : 16 bits
Compression mode                         : Lossy
Stream size                              : 429 MiB (14%)
Alignment                                : Aligned on interleaves
Interleave, duration                     : 42  ms (1.00 video frame)
Interleave, preload duration             : 512  ms
Service kind                             : Complete Main

 
 
 
 
 
Category:Movies > Xvid
Lang:English  English
Total Size:2.91 GB
Info Hash:10cd0ad4444bcee69d68168c0761ec341bb044cb
Added By:Scene
Date Added:14-10-2017 16:50:01
Downloads:119

Ratings:Not Yet Rated (Log in to rate it)


Tracker:
http://tracker.trackerfix.com:80/announce


File List: 


Comments

No comments still posted

Top
Copyright 2018 DownloadHD -|- Page Generated In 0.296154 secs.
-|- RSS Feed -|- Feed Info
FIAT 500L 2013 1.3 MJt Dualog Lounge 85cv S PANORAMIC | series free online | Comédie 1245