Login
Username:
Password:
[Signup]
[Recover Account]


Browse Torrents

Poll


You must be logged in to view polls



Latest Torrents
MacGyver.2016.S03E...
- [Size: 1.36 GB]

Room.104.S02E03.WE...
- [Size: 223.50 MB]

Real.Time.With.Bil...
- [Size: 329.66 MB]

Van.Helsing.S03E07...
- [Size: 825.83 MB]

Van.Helsing.S03E07...
- [Size: 604.10 MB]


Torrent Details For "The.Playground.2017.720p.WEB-DL.XviD.MP3-FGT"

The.Playground.2017.720p.WEB-DL.XviD.MP3-FGT

Download this torrent | Magnet Download
Health:
Seeds: 0
Leechers: 17
Completed:
Last Checked: 14-10-2017 16:45:39
External Torrent
Update Stats



Images Host

Poster


iMDB
Imdb Picture Title: The Playground
Year: 2017
Runtime: 151 minutes
Language: English
Country: USA
All Genres: Thriller
Plot Outline: A fable of five vastly separate inner-city lives who struggle against their limitations in an interlocking tale assembled by a dark orchestrator.
Director: Edreace Purmul
Writing By: Edreace Purmul,Ramona Frye,Dean Mounir,
Produced By: Bart Cameron,Marisa Ditimus,Rayma Kendra Kulik,Chad Littlepage,Raj Milian,Edreace Purmul,Rebecca Reyes,
Music: Sami Matar
Cast:
Myles Cranford as Old Homeless Man
Merrick McCartha as Grandison
Shane P. Allen as Mr. Vaugn
Christopher Salazar as Joseph
Lawrence R. Kivett as Jack
Ghadir Mounib as Jill
Daniel Armand as Nameless Man
Evan Henderson as Accountant
Raye Richards as Hairdresser Coworker
Brooke Laver as Distracting Woman
Trailers:
World Premiere October 12th in San Diego, Directed by Edreace Purmul
The Playground
On iTunes OCTOBER 13


Watch-Free-HD     Download

Details
Name:The.Playground.2017.720p.WEB-DL.XviD.MP3-FGT
Description:
MediaInfo

Video
ID                                       : 0
Format                                   : MPEG-4 Visual
Format profile                           : [email protected]
Format settings, BVOP                    : No
Format settings, QPel                    : No
Format settings, GMC                     : No warppoints
Format settings, Matrix                  : Default (H.263)
Codec ID                                 : XVID
Codec ID/Hint                            : XviD
Duration                                 : 2 h 34 min
Bit rate                                 : 3 417 kb/s
Width                                    : 1 280 pixels
Height                                   : 676 pixels
Display aspect ratio                     : 1.893
Frame rate                               : 23.976 (24000/1001) FPS
Color space                              : YUV
Chroma subsampling                       : 4:2:0
Bit depth                                : 8 bits
Scan type                                : Progressive
Compression mode                         : Lossy
Bits/(Pixel*Frame)                       : 0.165
Stream size                              : 3.70 GiB (94%)
Writing library                          : Lavc57.89.100

Audio
ID                                       : 1
Format                                   : MPEG Audio
Format version                           : Version 1
Format profile                           : Layer 3
Mode                                     : Joint stereo
Codec ID                                 : 55
Codec ID/Hint                            : MP3
Duration                                 : 2 h 34 min
Bit rate mode                            : Constant
Bit rate                                 : 192 kb/s
Channel(s)                               : 2 channels
Sampling rate                            : 48.0 kHz
Compression mode                         : Lossy
Stream size                              : 213 MiB (5%)
Alignment                                : Aligned on interleaves
Interleave, duration                     : 24  ms (0.58 video frame)
Interleave, preload duration             : 504  ms
Writing library                          : LAME3.99.5

 
 
 
 
 
 
Category:Movies > WEB-HD
Lang:English  English
Total Size:3.92 GB
Info Hash:c74f12d555ab6bb2eb0659c4d999db92b7233253
Added By:Scene
Date Added:14-10-2017 16:45:39
Downloads:61

Ratings:Not Yet Rated (Log in to rate it)


Tracker:
http://tracker.trackerfix.com:80/announce


File List: 


Comments

No comments still posted

Top
Copyright 2018 DownloadHD -|- Page Generated In 0.039510 secs.
-|- RSS Feed -|- Feed Info
5 10 2017-04-11Switched at Birth - Long Live Love | 6 Boxer Pompea uomo Tommy cotone intimo basic mutande shorts vari colori | 100+5 Stück Kellnerblock,Kellnerblöcke,Notizblock 7 x14 cm, stabile Ausführung