Login
Username:
Password:
[Signup]
[Recover Account]


Browse Torrents

Poll


You must be logged in to view polls



Latest Torrents
The.Conners.S01E08...
- [Size: 1.08 GB]

The.Voice.S15E24.X...
- [Size: 799.40 MB]

The.Voice.S15E24.W...
- [Size: 602.93 MB]

The.Voice.S15E24.7...
- [Size: 824.34 MB]

The.Voice.S15E24.W...
- [Size: 600.73 MB]


Torrent Details For "Talon.Falls.2017.720p.WEB-DL.XviD.AC3-FGT"

Talon.Falls.2017.720p.WEB-DL.XviD.AC3-FGT

Download this torrent | Magnet Download
Health:
Seeds: 0
Leechers: 24
Completed:
Last Checked: 14-10-2017 16:43:33
External Torrent
Update Stats



Images Host

Poster


iMDB
Imdb Picture Title: Talon Falls
Year: 2017
Votes: 12
Rating: 6.2/10
Language: English
Country: USA
All Genres: Horror
Plot Outline: Four teenagers on a road trip decide to take a detour and find them selves at at haunted house halloween scream park deep in the woods of southern Kentucky. After witnessing an assortment ...
Director: Joshua Shreve
Writing By: Joshua Shreve,
Produced By: Todd Ferren,Kent Hammond,Leslie Mills,Joshua Shreve,Jeff Steinborn,
Music: Michael Whittaker
Cast:
Brad Bell as
Jordyn Rudolph as
Ryan Rudolph as
Morgan Wiggins as
Trailers:
TALON FALLS Official Trailer


Watch-Free-HD     Download

Details
Name:Talon.Falls.2017.720p.WEB-DL.XviD.AC3-FGT
Description:
MediaInfo

Video
ID                                       : 0
Format                                   : MPEG-4 Visual
Format profile                           : [email protected]
Format settings, BVOP                    : No
Format settings, QPel                    : No
Format settings, GMC                     : No warppoints
Format settings, Matrix                  : Default (H.263)
Codec ID                                 : XVID
Codec ID/Hint                            : XviD
Duration                                 : 1 h 14 min
Bit rate                                 : 3 916 kb/s
Width                                    : 1 280 pixels
Height                                   : 548 pixels
Display aspect ratio                     : 2.35:1
Frame rate                               : 23.976 (24000/1001) FPS
Color space                              : YUV
Chroma subsampling                       : 4:2:0
Bit depth                                : 8 bits
Scan type                                : Progressive
Compression mode                         : Lossy
Bits/(Pixel*Frame)                       : 0.233
Stream size                              : 2.05 GiB (91%)
Writing library                          : Lavc57.89.100

Audio
ID                                       : 1
Format                                   : AC-3
Format/Info                              : Audio Coding 3
Format settings, Endianness              : Big
Codec ID                                 : 2000
Duration                                 : 1 h 14 min
Bit rate mode                            : Constant
Bit rate                                 : 384 kb/s
Channel(s)                               : 6 channels
Channel positions                        : Front: L C R, Side: L R, LFE
Sampling rate                            : 48.0 kHz
Frame rate                               : 31.250 FPS (1536 spf)
Bit depth                                : 16 bits
Compression mode                         : Lossy
Stream size                              : 206 MiB (9%)
Alignment                                : Aligned on interleaves
Interleave, duration                     : 42  ms (1.00 video frame)
Interleave, preload duration             : 512  ms
Service kind                             : Complete Main

 
 
 
 
 
 
Category:Movies > WEB-HD
Lang:English  English
Total Size:2.25 GB
Info Hash:2389e28d1c349f31e084625cf3750f29b5a5e3f1
Added By:Scene
Date Added:14-10-2017 16:43:33
Downloads:48

Ratings:Not Yet Rated (Log in to rate it)


Tracker:
http://tracker.trackerfix.com:80/announce


File List: 


Comments

No comments still posted

Top
Copyright 2018 DownloadHD -|- Page Generated In 0.294899 secs.
-|- RSS Feed -|- Feed Info
Bastard Girls 0 1 5 2 (3D, Anal, Teen, Blowjob, School, BDSM) PC zip | SecureCRT 6.7 Beta 1 6.6.2 Build 350 | Nazo no Kanojo X