Login
Username:
Password:
[Signup]
[Recover Account]


Browse Torrents

Poll


You must be logged in to view polls



Latest Torrents
Nightflyers.S01E10...
- [Size: 744.79 MB]

Nightflyers.S01E10...
- [Size: 255.73 MB]

Nightflyers.S01E10...
- [Size: 250.16 MB]

Legacies.S01E07.72...
- [Size: 130.84 MB]

Murphy.Brown.S11E1...
- [Size: 148.61 MB]


Torrent Details For "Swing.Away.2016.720p.WEB-DL.XviD.AC3-FGT"

Swing.Away.2016.720p.WEB-DL.XviD.AC3-FGT

Download this torrent | Magnet Download
Health:
Seeds: 0
Leechers: 15
Completed:
Last Checked: 14-10-2017 16:41:30
External Torrent
Update Stats



Images Host

Poster


iMDB
Imdb Picture Title: Swing Away
Year: 2016
Runtime: 98 minutes
Votes: 41
Rating: 7.7/10
Language: English, Greek
Country: USA
All Genres: Comedy, Drama, Sport
Plot Outline: Following a meltdown that leads to a suspension, professional golfer Zoe Papadopoulos travels to her grandparents' village in Greece to escape the harsh spotlight of the international ...
Tagline: Hope for nothing. Fear nothing. Swing Away.
Director: Michael A. Nickles
Writing By: Paul Robert Lingas,Julia Wall,George Elias Stephanopoulos,Paul Robert Lingas,
Produced By: Gustavo Neiva De Medeiros,Shannon Elizabeth,Thomas Hanna,Stamatios Tom Hiotis,Vinca Liane Jarrett Esq,Steven Kampmann,George Kiriakos,Kostas Lambropoulos,Paul Robert Lingas,Edward Maletis,Peter J. Pappas,John Paterakis,Alex Pattakos,Effie Skrobolas,George Elias Stephanopoulos,Giannis Zarganis,
Music: Tao Zervas
Cast:
Shannon Elizabeth as Zoe
John O'Hurley as Glenn
Karl Theobald as Thomas
Manos Gavras as Marcos
Renos Haralambidis as Panayiotis
Viktoria Miller as Stella
Hristos Sougaris as Father Anthony
Alexandros Mylonas as Haralambos
Olga Damani as Keti
Demetrios Saites as Antonopoulos
Trailers:
Swing Away


Watch-Free-HD     Download

Details
Name:Swing.Away.2016.720p.WEB-DL.XviD.AC3-FGT
Description:
MediaInfo

Video
ID                                       : 0
Format                                   : MPEG-4 Visual
Format profile                           : [email protected]
Format settings, BVOP                    : No
Format settings, QPel                    : No
Format settings, GMC                     : No warppoints
Format settings, Matrix                  : Default (H.263)
Codec ID                                 : XVID
Codec ID/Hint                            : XviD
Duration                                 : 1 h 39 min
Bit rate                                 : 3 762 kb/s
Width                                    : 1 280 pixels
Height                                   : 530 pixels
Display aspect ratio                     : 2.40:1
Frame rate                               : 24.000 FPS
Color space                              : YUV
Chroma subsampling                       : 4:2:0
Bit depth                                : 8 bits
Scan type                                : Progressive
Compression mode                         : Lossy
Bits/(Pixel*Frame)                       : 0.231
Stream size                              : 2.61 GiB (91%)
Writing library                          : Lavc57.89.100

Audio
ID                                       : 1
Format                                   : AC-3
Format/Info                              : Audio Coding 3
Format settings, Endianness              : Big
Codec ID                                 : 2000
Duration                                 : 1 h 39 min
Bit rate mode                            : Constant
Bit rate                                 : 384 kb/s
Channel(s)                               : 6 channels
Channel positions                        : Front: L C R, Side: L R, LFE
Sampling rate                            : 48.0 kHz
Frame rate                               : 31.250 FPS (1536 spf)
Bit depth                                : 16 bits
Compression mode                         : Lossy
Stream size                              : 273 MiB (9%)
Alignment                                : Aligned on interleaves
Interleave, duration                     : 42  ms (1.00 video frame)
Interleave, preload duration             : 512  ms
Service kind                             : Complete Main

 
 
 
 
 
 
Category:Movies > WEB-HD
Lang:English  English
Total Size:2.88 GB
Info Hash:2b3bae345a92a30028723e5b62b763408510c7a9
Added By:Scene
Date Added:14-10-2017 16:41:30
Downloads:44

Ratings:Not Yet Rated (Log in to rate it)


Tracker:
http://tracker.trackerfix.com:80/announce


File List: 


Comments

No comments still posted

Top
Copyright 2018 DownloadHD -|- Page Generated In 0.305913 secs.
-|- RSS Feed -|- Feed Info
Watch movie | phone memory cards | le casa de papel season 1