Login
Username:
Password:
[Signup]
[Recover Account]


Browse Torrents

Poll


You must be logged in to view polls



Latest Torrents
Puzzle.2018.HDRip....
- [Size: 1.43 GB]

5 Weddings (2018) ...
- [Size: 698.51 MB]

Crazy.Rich.Asians....
- [Size: 3.20 GB]

BigBoss.S12.Ep41.1...
- [Size: 3.50 GB]

Puzzle.2018.HDRip....
- [Size: 1.43 GB]


Torrent Details For "Bad.Blood.The.Movie.2016.WEB-DL.x264-FGT"

Bad.Blood.The.Movie.2016.WEB-DL.x264-FGT

Download this torrent | Magnet Download
Health:
Seeds: 0
Leechers: 42
Completed:
Last Checked: 14-10-2017 16:38:34
External Torrent
Update Stats



Images Host

Poster


iMDB
Imdb Picture Title: Bad Blood: The Movie
Year: 2016
Runtime: 80 minutes
Votes: 37
Rating: 6.8/10
Language: English
Country: USA
All Genres: Fantasy, Horror, Sci-Fi
Plot Outline: A classic werewolf flick with an amphibious twist; it's a race against time to find the antidote.
Director: Tim Reis
Writing By: Tim Reis,
Produced By: Michael Bremer,Colin Geddes,Katarina Gligorijevic,Josh Adam Gould,John Manfredi,Mike Morgan,Jeff Potenza,Tim Reis,James Sizemore,Brian P. Smith,S. Scott Stewart,Frank Strano,Akom Tidwell,
Music: Christopher Ian Brooker
Cast:
Mary Malloy as Victoria Miller
Vikas Adam as Attendant
Troy Halverson as Paul Stensland
Brian Troxell as Wade Worthington
Tomi Lavinder as Lillian Miller
David Alexander as Murphys Prescott
Thom Badinger as Roadside Victim
Mickie Banyas as Landers Morris
Kevin Galbraith as
Michael Gladden as Officer Roberson


Watch-Free-HD     Download

Details
Name:Bad.Blood.The.Movie.2016.WEB-DL.x264-FGT
Description:
MediaInfo

Video
ID                                       : 1
Format                                   : AVC
Format/Info                              : Advanced Video Codec
Format profile                           : [email protected]
Format settings, CABAC                   : Yes
Format settings, ReFrames                : 5 frames
Codec ID                                 : avc1
Codec ID/Info                            : Advanced Video Coding
Duration                                 : 1 h 19 min
Bit rate                                 : 1 100 kb/s
Width                                    : 720 pixels
Height                                   : 320 pixels
Display aspect ratio                     : 2.223
Frame rate mode                          : Constant
Frame rate                               : 23.976 (24000/1001) FPS
Color space                              : YUV
Chroma subsampling                       : 4:2:0
Bit depth                                : 8 bits
Scan type                                : Progressive
Bits/(Pixel*Frame)                       : 0.199
Stream size                              : 620 MiB (89%)
Title                                    : Bad.Blood.The.Movie.2016.WEB-DL.x264-FGT
Writing library                          : x264 core 152 r2851M ba24899
Encoding settings                        : cabac=1 / ref=5 / deblock=1:-1:-1 / analyse=0x3:0x113 / me=umh / subme=9 / psy=1 / psy_rd=1.00:0.15 / mixed_ref=1 / me_range=16 / chroma_me=1 / trellis=2 / 8x8dct=1 / cqm=0 / deadzone=21,11 / fast_pskip=1 / chroma_qp_offset=-3 / threads=40 / lookahead_threads=2 / sliced_threads=0 / nr=0 / decimate=1 / interlaced=0 / bluray_compat=0 / constrained_intra=0 / bframes=3 / b_pyramid=2 / b_adapt=2 / b_bias=0 / direct=3 / weightb=1 / open_gop=0 / weightp=2 / keyint=250 / keyint_min=23 / scenecut=40 / intra_refresh=0 / rc_lookahead=50 / rc=abr / mbtree=1 / bitrate=1100 / ratetol=1.0 / qcomp=0.60 / qpmin=0 / qpmax=69 / qpstep=4 / ip_ratio=1.40 / aq=1:1.00
Language                                 : English

Audio
ID                                       : 2
Format                                   : AAC
Format/Info                              : Advanced Audio Codec
Format profile                           : LC
Codec ID                                 : 40
Duration                                 : 1 h 19 min
Duration_LastFrame                       : -11 ms
Bit rate mode                            : Constant
Bit rate                                 : 128 kb/s
Channel(s)                               : 2 channels
Channel positions                        : Front: L R
Sampling rate                            : 48.0 kHz
Frame rate                               : 46.875 FPS (1024 spf)
Compression mode                         : Lossy
Stream size                              : 73.1 MiB (11%)
Title                                    : Bad.Blood.The.Movie.2016.WEB-DL.x264-FGT
Language                                 : English
Default                                  : Yes
Alternate group                          : 1
 
 
 
 
 
 
Category:Movies > WEB-HD
Lang:English  English
Total Size:695.80 MB
Info Hash:7cc7608d7d3a3d1e9dfe31a0334c16fda26f9690
Added By:Scene
Date Added:14-10-2017 16:38:34
Downloads:40

Ratings:Not Yet Rated (Log in to rate it)


Tracker:
http://tracker.trackerfix.com:80/announce


File List: 


Comments

No comments still posted

Top
Copyright 2018 DownloadHD -|- Page Generated In 0.096819 secs.
-|- RSS Feed -|- Feed Info