Login
Username:
Password:
[Signup]
[Recover Account]


Browse Torrents

Poll


You must be logged in to view polls



Latest Torrents
Blood.UK.S01E01E02...
- [Size: 387.18 MB]

Hero No Zero 3 (Ma...
- [Size: 638.09 MB]

Chalbaaz (2018) Sa...
- [Size: 699.80 MB]

Bodhon [2017] Beng...
- [Size: 583.86 MB]

Munni Metric Pass ...
- [Size: 591.77 MB]


Torrent Details For "Sikandar 2009 Hindi Untouched 1080p WEB-DL x264 AAC ESub-Download"

Sikandar 2009 Hindi Untouched 1080p WEB-DL x264 AAC ESub-Download

Download this torrent | Magnet Download
Health:
Seeds: 0
Leechers: 12
Completed:
Last Checked: 27-07-2018 03:47:49
External Torrent
Update Stats



Images Host

Poster


iMDB
Imdb Picture Title: Sikandar
Year: 2009
Runtime: 110 minutes
Votes: 234
Rating: 6.5/10
Language: Hindi, Urdu
Country: India
All Genres: Crime, Drama, Mystery, Thriller
Plot Outline: 14-year-old Sikandar Raza has been living with his uncle and aunt in Kashmir, ever since his parents were killed by militants 10 years ago. The young boy, who dreams of a better life for ...
Director: Piyush Jha
Writing By: Piyush Jha,Kumaar,
Produced By: Anwar Jamal,Alan McAlex,Sudhir Mishra,Mahesh Ramanathan,
Music: Justin Shankar Mahadevan Uday Mazumdar Loy Mendonsa Ehsaan Noorani Sandesh Shandilya
Cast:
Parzaan Dastur as Sikandar Raza
Ayesha Kapoor as Nasreen Banu
Sanjay Suri as Mukhtar Masoodi
Madhavan as Lt. Col. Rajesh Rao
Nassar Abdulla as
Akash Aditya as Police Inspector
Irfan Choudhary as Mukhtar's bodyguard
Mushtaq Kak as Maulvi Allah Baksh
Gulzar Khan as Army Havaldar
Nazir Khan as Arshad Baig


Watch-Free-HD     Download

Details
Name:Sikandar 2009 Hindi Untouched 1080p WEB-DL x264 AAC ESub-Download
Description:
Sikandar 2009 Hindi Untouched 1080p WEB-DL x264 AAC ESub-Download


Format                      : Matroska
Format version              : Version 4 / Version 2
File size                   : 3.16 GiB
Duration                    : 1 h 43 min
Overall bit rate            : 4 381 kb/s
Movie name                  : Sikandar 2009 - Download


Video
ID                          : 1
Format                      : AVC
Format/Info                 : Advanced Video Codec
Format profile              : [email protected]
Format settings, CABAC      : Yes
Format settings, ReFrames   : 1 frame
Format settings, GOP        : M=1, N=25
Codec ID                    : V_MPEG4/ISO/AVC
Duration                    : 1 h 43 min
Bit rate mode               : Constant
Bit rate                    : 4 253 kb/s
Nominal bit rate            : 4 500 kb/s
Width                       : 1 920 pixels
Height                      : 1 080 pixels
Display aspect ratio        : 16:9
Frame rate mode             : Constant
Frame rate                  : 25.000 FPS


Audio
ID                          : 2
Format                      : AAC
Format/Info                 : Advanced Audio Codec
Format profile              : LC
Codec ID                    : A_AAC
Duration                    : 1 h 43 min
Bit rate                    : 125 kb/s
Channel(s)                  : 2 channels
Channel positions           : Front: L R
Sampling rate               : 48.0 kHz
Frame rate                  : 46.875 FPS (1024 spf)
Compression mode            : Lossy
Stream size                 : 92.6 MiB (3%)
Language                    : Hindi
Default                     : Yes
Forced                      : No

Text
ID                          : 3
Format                      : UTF-8
Codec ID                    : S_TEXT/UTF8
Codec ID/Info               : UTF-8 Plain Text
Duration                    : 1 h 42 min
Bit rate                    : 32 b/s
Count of elements           : 769
Stream size                 : 24.2 KiB (0%)
Language                    : English
Default                     : Yes
Forced                      : No

           
Category:Movies > Bollywood
Lang:Hindi
Total Size:3.16 GB
Info Hash:33be0416d3bc05bad2e67b72dbf49f21c6a49d2f
Added By:Download
Date Added:14-10-2017 14:55:16
Downloads:302

Ratings:Not Yet Rated (Log in to rate it)


Tracker:
udp://tracker.coppersurfer.tk:6969/announce


File List: 


Comments

No comments still posted

Top
Copyright 2018 DownloadHD -|- Page Generated In 0.694381 secs.
-|- RSS Feed -|- Feed Info
1/2 Malleable Threaded Black Floor Flange Iron Pipe Fittings BSP Wall Mount | 6 Pairs 98% BAMBOO SOCKS Men's Heavy Duty Premium Thick Work BLACK/Navy/Grey | Tory Burch Embrace Ambition Bracelet