Login
Username:
Password:
[Signup]
[Recover Account]


Browse Torrents

Poll


You must be logged in to view polls



Latest Torrents
Nightflyers.S01E10...
- [Size: 744.79 MB]

Nightflyers.S01E10...
- [Size: 255.73 MB]

Nightflyers.S01E10...
- [Size: 250.16 MB]

Legacies.S01E07.72...
- [Size: 130.84 MB]

Murphy.Brown.S11E1...
- [Size: 148.61 MB]


Torrent Details For "The.Babysitter.2017.WEBRip.x264-FGT"

The.Babysitter.2017.WEBRip.x264-FGT

Download this torrent | Magnet Download
Health:
Seeds: 0
Leechers: 45
Completed:
Last Checked: 13-10-2017 11:18:33
External Torrent
Update Stats



Images Host

Poster


iMDB
Imdb Picture Title: The Babysitter
Year: 2017
Votes: 17
Rating: 8.5/10
Language: English
Country: USA
All Genres: Horror
Plot Outline: The events of one evening take an unexpected turn for the worst for a young boy trying to spy on his babysitter.
Director: McG
Writing By: Brian Duffield,
Produced By: Devin Andre,Steven Bello,Brian Duffield,McG,James McGough,Zack Schiller,David Siegel,Mary Viola,
Music: Douglas Pipes
Cast:
Bella Thorne as Allison
Samara Weaving as Bee
Leslie Bibb as
Robbie Amell as Max
Hana Mae Lee as Sonya
Emily Alyn Lind as
Andrew Bachelor as John
Judah Lewis as Cole
Doug Haley as Samuel
Chris Wylde as Melanie's Annoying Dad
Trailers:
Official Trailer


Watch-Free-HD     Download

Details
Name:The.Babysitter.2017.WEBRip.x264-FGT
Description:
MediaInfo

Video
ID                                       : 1
Format                                   : AVC
Format/Info                              : Advanced Video Codec
Format profile                           : [email protected]
Format settings, CABAC                   : Yes
Format settings, ReFrames                : 5 frames
Codec ID                                 : avc1
Codec ID/Info                            : Advanced Video Coding
Duration                                 : 1 h 25 min
Bit rate                                 : 1 100 kb/s
Width                                    : 720 pixels
Height                                   : 304 pixels
Display aspect ratio                     : 2.40:1
Original display aspect ratio            : 2.40:1
Frame rate mode                          : Constant
Frame rate                               : 23.976 (24000/1001) FPS
Color space                              : YUV
Chroma subsampling                       : 4:2:0
Bit depth                                : 8 bits
Scan type                                : Progressive
Bits/(Pixel*Frame)                       : 0.210
Stream size                              : 663 MiB (89%)
Title                                    : The.Babysitter.2017.WEBRip.x264-FGT
Writing library                          : x264 core 152 r2851M ba24899
Encoding settings                        : cabac=1 / ref=5 / deblock=1:-1:-1 / analyse=0x3:0x113 / me=umh / subme=9 / psy=1 / psy_rd=1.00:0.15 / mixed_ref=1 / me_range=16 / chroma_me=1 / trellis=2 / 8x8dct=1 / cqm=0 / deadzone=21,11 / fast_pskip=1 / chroma_qp_offset=-3 / threads=40 / lookahead_threads=2 / sliced_threads=0 / nr=0 / decimate=1 / interlaced=0 / bluray_compat=0 / constrained_intra=0 / bframes=3 / b_pyramid=2 / b_adapt=2 / b_bias=0 / direct=3 / weightb=1 / open_gop=0 / weightp=2 / keyint=250 / keyint_min=23 / scenecut=40 / intra_refresh=0 / rc_lookahead=50 / rc=abr / mbtree=1 / bitrate=1100 / ratetol=1.0 / qcomp=0.60 / qpmin=0 / qpmax=69 / qpstep=4 / ip_ratio=1.40 / aq=1:1.00

Audio
ID                                       : 2
Format                                   : AAC
Format/Info                              : Advanced Audio Codec
Format profile                           : LC
Codec ID                                 : 40
Duration                                 : 1 h 25 min
Duration_LastFrame                       : -11 ms
Bit rate mode                            : Constant
Bit rate                                 : 128 kb/s
Channel(s)                               : 2 channels
Channel positions                        : Front: L R
Sampling rate                            : 48.0 kHz
Frame rate                               : 46.875 FPS (1024 spf)
Compression mode                         : Lossy
Stream size                              : 78.0 MiB (10%)
Title                                    : The.Babysitter.2017.WEBRip.x264-FGT
Language                                 : English
Default                                  : Yes
Alternate group                          : 1

 
 
 
 
 
 
Category:Movies > WEB-HD
Lang:English  English
Total Size:744.98 MB
Info Hash:568ba9a0d2cac3f21e4cf93c20efaffe00fec4d3
Added By:Scene
Date Added:13-10-2017 11:18:33
Downloads:92

Ratings:Not Yet Rated (Log in to rate it)


Tracker:
http://tracker.trackerfix.com:80/announce


File List: 


Comments

No comments still posted

Top
Copyright 2018 DownloadHD -|- Page Generated In 0.297990 secs.
-|- RSS Feed -|- Feed Info
Mysterie | Gangland Undercover | Joseph Boyle