Login
Username:
Password:
[Signup]
[Recover Account]


Browse Torrents

Poll


You must be logged in to view polls



Latest Torrents
Seth.Meyers.2018.1...
- [Size: 586.13 MB]

Seth.Meyers.2018.1...
- [Size: 801.04 MB]

18+.What.Keeps.You...
- [Size: 1.10 GB]

Dirty Boss (2016) ...
- [Size: 1.33 GB]

Weight.2018.HDRip....
- [Size: 1.35 GB]


Torrent Details For "Jaan Tere Naam 1992 720p DVDRip x264 AAC"

Jaan Tere Naam 1992 720p DVDRip x264 AAC

Download this torrent | Magnet Download
Health:
Seeds: 0
Leechers: 3
Completed: 652 
Last Checked: 20-11-2018 02:31:13
External Torrent
Update Stats



Images Host

Poster


Watch-Free-HD     Download

Details
Name:Jaan Tere Naam 1992 720p DVDRip x264 AAC
Description:
General
Format                                   : Matroska
Format version                           : Version 4 / Version 2
File size                                : 1.22 GiB
Duration                                 : 2 h 10 min
Overall bit rate                         : 1 335 kb/s

Video
ID                                       : 1
Format                                   : AVC
Format/Info                              : Advanced Video Codec
Format profile                           : [email protected]
Format settings                          : CABAC / 4 Ref Frames
Format settings, CABAC                   : Yes
Format settings, RefFrames               : 4 frames
Codec ID                                 : V_MPEG4/ISO/AVC
Duration                                 : 2 h 10 min
Bit rate                                 : 1 200 kb/s
Width                                    : 1 280 pixels
Height                                   : 538 pixels
Display aspect ratio                     : 2.40:1
Frame rate mode                          : Constant
Frame rate                               : 25.000 FPS
Color space                              : YUV
Chroma subsampling                       : 4:2:0
Bit depth                                : 8 bits
Scan type                                : Progressive
Bits/(Pixel*Frame)                       : 0.070
Stream size                              : 1.10 GiB (90%)
Writing library                          : x264 core 148 r2643 5c65704
Default                                  : Yes
Forced                                   : No

Audio
ID                                       : 2
Format                                   : AAC
Format/Info                              : Advanced Audio Codec
Format profile                           : LC
Codec ID                                 : A_AAC-2
Duration                                 : 2 h 10 min
Bit rate                                 : 128 kb/s
Channel(s)                               : 2 channels
Channel positions                        : Front: L R
Sampling rate                            : 44.1 kHz
Frame rate                               : 43.066 FPS (1024 SPF)
Compression mode                         : Lossy
Stream size                              : 120 MiB (10%)
Default                                  : Yes
Forced                                   : No





Category:Movies > Bollywood
Lang:Hindi
Total Size:1.22 GB
Info Hash:5e1a7d9f3e63dfd73d0936aa82a9e6a39bacdd95
Added By:Freaky
Date Added:12-10-2017 17:37:49
Downloads:259

Ratings:Not Yet Rated (Log in to rate it)


Tracker:
http://ipv4.tracker.harry.lu/announce

This Torrent also has backup trackers
URLSeedersLeechersCompleted
http://ipv4.tracker.harry.lu/announce156418
http://ipv4.tracker.harry.lu:80/announce156418
http://tracker.devil-torrents.pl:80/announce16590
http://tracker.devil-torrents.pl/announce16590
http://open.kickasstracker.com/announce16760
http://open.kickasstracker.com:443/announce16760
http://tracker.devil-torrents.pl/announce16590


File List: 


Comments

No comments still posted

Top
Copyright 2018 DownloadHD -|- Page Generated In 2.439493 secs.
-|- RSS Feed -|- Feed Info
1×06 The Choice is Yours | 柏·梅娜妲 | Vedi Prodotto