Login
Username:
Password:
[Signup]
[Recover Account]


Browse Torrents

Poll


You must be logged in to view polls



Latest Torrents
James.Corden.2018....
- [Size: 627.02 MB]

Stephen.Colbert.20...
- [Size: 649.06 MB]

The.Domestics.2018...
- [Size: 705.94 MB]

Tell.Me.A.Story.US...
- [Size: 243.05 MB]

Neelakasham Pachak...
- [Size: 1.48 GB]


Torrent Details For "The.Kings.Of.Summer.2012.1080p.BluRay.x264-GECKOS"

The.Kings.Of.Summer.2012.1080p.BluRay.x264-GECKOS

Download this torrent | Magnet Download
Health:
Seeds: 0
Leechers: 38
Completed:
Last Checked: 12-10-2017 14:26:41
External Torrent
Update Stats



Images Host

Poster
No poster


iMDB
Imdb Picture Title: The Kings of Summer
Year: 2013
Runtime: 95 minutes
Votes: 67343
Rating: 7.2/10
Language: English
Country: USA
All Genres: Adventure, Comedy, Drama
Plot Outline: Three teenage friends, in the ultimate act of independence, decide to spend their summer building a house in the woods and living off the land.
Tagline: Discover a world you never knew expected.
Director: Jordan Vogt-Roberts
Writing By: Chris Galletta,
Produced By: Andrew Brickman,Tyler Davidson,B. Ted Deiker,Jeffrey A. Green,John Hodges,Eric Hollenbeck,Allan Marks,Michael Razewski,Richard Rothfeld,Robert Ruggeri,Peter Saraf,Jordan Vogt-Roberts,Susan Wasserman,Alyson E. Winick,
Music: Ryan Miller
Cast:
Nick Robinson as Joe
Gabriel Basso as Patrick
Moises Arias as Biaggio
Nick Offerman as Frank
Erin Moriarty as Kelly
Craig Cackowski as Mr. Larson
William Sonnie as Track Suit
Nathan Keyes as Paul
Cristoffer Carter as Construction Kid
Megan Mullally as Mrs. Keenan
Trailers:
Version 1
Teaser


Watch-Free-HD     Download

Details
Name:The.Kings.Of.Summer.2012.1080p.BluRay.x264-GECKOS
Description:
MediaInfo

Video
ID                                       : 1
Format                                   : AVC
Format/Info                              : Advanced Video Codec
Format profile                           : [email protected]
Format settings, CABAC                   : Yes
Format settings, ReFrames                : 5 frames
Codec ID                                 : V_MPEG4/ISO/AVC
Duration                                 : 1 h 35 min
Bit rate                                 : 8 386 kb/s
Width                                    : 1 920 pixels
Height                                   : 800 pixels
Display aspect ratio                     : 2.40:1
Frame rate mode                          : Constant
Frame rate                               : 23.976 FPS
Color space                              : YUV
Chroma subsampling                       : 4:2:0
Bit depth                                : 8 bits
Scan type                                : Progressive
Bits/(Pixel*Frame)                       : 0.228
Stream size                              : 5.42 GiB (83%)
Title                                    : X264
Writing library                          : x264 core 133 r2334 a3ac64b
Encoding settings                        : cabac=1 / ref=5 / deblock=1:0:0 / analyse=0x3:0x133 / me=umh / subme=7 / psy=1 / psy_rd=1.00:0.00 / mixed_ref=1 / me_range=16 / chroma_me=1 / trellis=1 / 8x8dct=1 / cqm=0 / deadzone=21,11 / fast_pskip=0 / chroma_qp_offset=-2 / threads=12 / lookahead_threads=2 / sliced_threads=0 / nr=0 / decimate=1 / interlaced=0 / bluray_compat=0 / constrained_intra=0 / bframes=3 / b_pyramid=2 / b_adapt=1 / b_bias=0 / direct=1 / weightb=1 / open_gop=0 / weightp=2 / keyint=250 / keyint_min=23 / scenecut=40 / intra_refresh=0 / rc_lookahead=40 / rc=2pass / mbtree=1 / bitrate=8386 / ratetol=1.0 / qcomp=0.60 / qpmin=0 / qpmax=69 / qpstep=4 / cplxblur=20.0 / qblur=0.5 / ip_ratio=1.40 / aq=1:1.00
Language                                 : English
Default                                  : Yes
Forced                                   : No

Audio
ID                                       : 2
Format                                   : DTS
Format/Info                              : Digital Theater Systems
Mode                                     : 16
Format settings, Endianness              : Big
Codec ID                                 : A_DTS
Duration                                 : 1 h 35 min
Bit rate mode                            : Constant
Bit rate                                 : 1 509 kb/s
Channel(s)                               : 6 channels
Channel positions                        : Front: L C R, Side: L R, LFE
Sampling rate                            : 48.0 kHz
Frame rate                               : 93.750 FPS (512 spf)
Bit depth                                : 24 bits
Compression mode                         : Lossy
Stream size                              : 1.01 GiB (15%)
Title                                    : DTS
Language                                 : English
Default                                  : Yes
Forced                                   : No

Menu
00:00:00.000                             : en:00:00:00.000
00:06:01.319                             : en:00:06:01.319
00:12:20.406                             : en:00:12:20.406
00:17:33.094                             : en:00:17:33.094
00:24:58.247                             : en:00:24:58.247
00:30:53.310                             : en:00:30:53.310
00:39:52.682                             : en:00:39:52.682
00:48:00.377                             : en:00:48:00.377
00:53:45.764                             : en:00:53:45.764
01:00:40.679                             : en:01:00:40.679
01:07:38.721                             : en:01:07:38.721
01:11:09.140                             : en:01:11:09.140
01:17:53.460                             : en:01:17:53.460
01:20:57.936                             : en:01:20:57.936
01:23:26.793                             : en:01:23:26.793
01:29:58.351                             : en:01:29:58.351
Category:Movies > 1080P Bluray
Lang:English  English
Total Size:6.56 GB
Info Hash:71551525844070cf1e4fb5552c8703ec28e41355
Added By:Agent47
Date Added:12-10-2017 14:26:41
Downloads:55

Ratings:Not Yet Rated (Log in to rate it)


Tracker:
http://tracker.trackerfix.com:80/announce


File List: 


Comments

No comments still posted

Top
Copyright 2018 DownloadHD -|- Page Generated In 0.182796 secs.
-|- RSS Feed -|- Feed Info
Sarinrat Thomas | Liên Khúc: Chiều Mưa | La nuit a dévoré le monde FRENCH WEBRIP 720p 2018