Login
Username:
Password:
[Signup]
[Recover Account]


Browse Torrents

Poll


You must be logged in to view polls



Latest Torrents
Mom.S06E11.HDTV.x2...
- [Size: 142.47 MB]

Mom.S06E11.720p.HD...
- [Size: 496.39 MB]

Mom.S06E11.720p.HD...
- [Size: 529.14 MB]

Supernatural.S14E0...
- [Size: 149.74 MB]

The.Apprentice.UK....
- [Size: 806.65 MB]


Torrent Details For "Thanks.For.Sharing.2012.LiMiTED.1080p.BluRay.x264-GECKOS"

Thanks.For.Sharing.2012.LiMiTED.1080p.BluRay.x264-GECKOS

Download this torrent | Magnet Download
Health:
Seeds: 0
Leechers: 37
Completed:
Last Checked: 12-10-2017 14:26:17
External Torrent
Update Stats



Images Host

Poster
No poster


iMDB
Imdb Picture Title: Thanks for Sharing
Year: 2012
Runtime: 112 minutes
Votes: 22297
Rating: 6.4/10
Language: English
Country: USA
All Genres: Comedy, Drama, Romance
Plot Outline: A romantic comedy that brings together three disparate characters who are learning to face a challenging and often confusing world as they struggle together against a common demon: sex addiction.
Tagline: Life is a journey you never have to take alone.
Director: Stuart Blumberg
Writing By: Stuart Blumberg,Matt Winston,
Produced By: Miranda de Pencier,David Koplan,Bill Migliore,Julia Muggia,Edward Norton,Doug Torres,Leslie Urdang,Dean Vanech,
Music: Christopher Lennertz
Cast:
Mark Ruffalo as Adam
Tim Robbins as Mike
Gwyneth Paltrow as Phoebe
Josh Gad as Neil
Joely Richardson as Katie
Patrick Fugit as Danny
Pink as Dede
Carol Kane as Roberta
Emily Meade as Becky
Isiah Whitlock Jr. as Charles
Trailers:
International Trailer
Trailer #1


Watch-Free-HD     Download

Details
Name:Thanks.For.Sharing.2012.LiMiTED.1080p.BluRay.x264-GECKOS
Description:
MediaInfo

Video
ID                                       : 1
Format                                   : AVC
Format/Info                              : Advanced Video Codec
Format profile                           : [email protected]
Format settings, CABAC                   : Yes
Format settings, ReFrames                : 4 frames
Codec ID                                 : V_MPEG4/ISO/AVC
Duration                                 : 1 h 52 min
Bit rate                                 : 8 578 kb/s
Width                                    : 1 920 pixels
Height                                   : 1 080 pixels
Display aspect ratio                     : 16:9
Frame rate mode                          : Constant
Frame rate                               : 23.976 (24000/1001) FPS
Color space                              : YUV
Chroma subsampling                       : 4:2:0
Bit depth                                : 8 bits
Scan type                                : Progressive
Bits/(Pixel*Frame)                       : 0.173
Stream size                              : 6.59 GiB (83%)
Writing library                          : x264 core 140 r2377 1ca7bb9
Encoding settings                        : cabac=1 / ref=4 / deblock=1:0:0 / analyse=0x3:0x133 / me=umh / subme=8 / psy=1 / psy_rd=1.00:0.00 / mixed_ref=1 / me_range=16 / chroma_me=1 / trellis=1 / 8x8dct=1 / cqm=0 / deadzone=21,11 / fast_pskip=0 / chroma_qp_offset=-2 / threads=18 / lookahead_threads=3 / sliced_threads=0 / nr=0 / decimate=1 / interlaced=0 / bluray_compat=0 / constrained_intra=0 / bframes=3 / b_pyramid=2 / b_adapt=2 / b_bias=0 / direct=3 / weightb=1 / open_gop=0 / weightp=2 / keyint=250 / keyint_min=23 / scenecut=40 / intra_refresh=0 / rc_lookahead=50 / rc=2pass / mbtree=1 / bitrate=8578 / ratetol=1.0 / qcomp=0.60 / qpmin=0 / qpmax=69 / qpstep=4 / cplxblur=20.0 / qblur=0.5 / ip_ratio=1.40 / aq=1:1.00
Language                                 : English
Default                                  : Yes
Forced                                   : No

Audio
ID                                       : 2
Format                                   : DTS
Format/Info                              : Digital Theater Systems
Mode                                     : 16
Format settings, Endianness              : Big
Codec ID                                 : A_DTS
Duration                                 : 1 h 52 min
Bit rate mode                            : Constant
Bit rate                                 : 1 509 kb/s
Channel(s)                               : 6 channels
Channel positions                        : Front: L C R, Side: L R, LFE
Sampling rate                            : 48.0 kHz
Frame rate                               : 93.750 FPS (512 spf)
Bit depth                                : 24 bits
Compression mode                         : Lossy
Stream size                              : 1.19 GiB (15%)
Language                                 : English
Default                                  : Yes
Forced                                   : No

Menu
00:00:00.000                             : en:00:00:00.000
00:06:33.184                             : en:00:06:33.184
00:13:25.179                             : en:00:13:25.179
00:20:34.859                             : en:00:20:34.859
00:26:10.903                             : en:00:26:10.903
00:32:39.040                             : en:00:32:39.040
00:40:52.200                             : en:00:40:52.200
00:46:01.425                             : en:00:46:01.425
00:51:49.982                             : en:00:51:49.982
01:00:08.396                             : en:01:00:08.396
01:07:12.111                             : en:01:07:12.111
01:13:02.753                             : en:01:13:02.753
01:20:40.461                             : en:01:20:40.461
01:26:54.626                             : en:01:26:54.626
01:32:51.357                             : en:01:32:51.357
01:46:46.692                             : en:01:46:46.692

Category:Movies > 1080P Bluray
Lang:English  English
Total Size:7.93 GB
Info Hash:88a243c03808fe0615ccd2c5a71882ddefb517df
Added By:Agent47
Date Added:12-10-2017 14:26:17
Downloads:41

Ratings:Not Yet Rated (Log in to rate it)


Tracker:
http://tracker.trackerfix.com:80/announce


File List: 


Comments

No comments still posted

Top
Copyright 2018 DownloadHD -|- Page Generated In 0.212229 secs.
-|- RSS Feed -|- Feed Info
Season 2 Episode 6 Janet and Michael | 1x13 Garo | RoboCop 2 BluRay Download Torrent Ação / Clássico / Ficção / Policial / Suspense Idioma: Inglês / Português 1990 MKV Torrent DownloadVídeo 10 / Áudio 10Sinopse: O Policial robô androide enfrenta gangue de traficantes de drogas. Ao mesmo tempo, o império corporativo que o criou está lançando um robô...