Login
Username:
Password:
[Signup]
[Recover Account]


Browse Torrents

Poll


You must be logged in to view polls



Latest Torrents
A Turtle's Tale 2 ...
- [Size: 1.26 GB]

Ekon.Eken-[2018]-[...
- [Size: 1.99 GB]

Madras Cafe (2013)...
- [Size: 1.69 GB]

Crazy Frog - The B...
- [Size: 111.67 MB]

Beyond.The.Sky.201...
- [Size: 16.97 GB]


Torrent Details For "Stories.We.Tell.2012.LIMITED.1080p.BluRay.x264-GECKOS"

Stories.We.Tell.2012.LIMITED.1080p.BluRay.x264-GECKOS

Download this torrent | Magnet Download
Health:
Seeds: 0
Leechers: 35
Completed:
Last Checked: 12-10-2017 14:25:52
External Torrent
Update Stats



Images Host

Poster
No poster


iMDB
Imdb Picture Title: Stories We Tell
Year: 2012
Runtime: 108 minutes
Votes: 10293
Rating: 7.6/10
Language: English
Country: Canada
All Genres: Documentary
Plot Outline: A film that excavates layers of myth and memory to find the elusive truth at the core of a family of storytellers.
Director: Sarah Polley
Writing By: Sarah Polley,Michael Polley,
Produced By: Silva Basmajian,Sonia Hosko,Anita Lee,
Cast:
Michael Polley as Himself - Storyteller
Harry Gulkin as Himself - Storyteller
Susy Buchan as Herself - Storyteller
John Buchan as Himself - Storyteller
Mark Polley as Himself - Storyteller
Joanna Polley as Herself - Storyteller
Cathy Gulkin as Herself - Storyteller
Marie Murphy as Herself - Storyteller
Robert MacMillan as Himself - Storyteller
Anne Tait as Herself - Storyteller
Trailers:
Theatrical Version


Watch-Free-HD     Download

Details
Name:Stories.We.Tell.2012.LIMITED.1080p.BluRay.x264-GECKOS
Description:
MediaInfo

Video
ID                                       : 1
Format                                   : AVC
Format/Info                              : Advanced Video Codec
Format profile                           : [email protected]
Format settings, CABAC                   : Yes
Format settings, ReFrames                : 4 frames
Codec ID                                 : V_MPEG4/ISO/AVC
Duration                                 : 1 h 48 min
Bit rate                                 : 8 573 kb/s
Width                                    : 1 920 pixels
Height                                   : 1 080 pixels
Display aspect ratio                     : 16:9
Frame rate mode                          : Constant
Frame rate                               : 23.976 (24000/1001) FPS
Original frame rate                      : 23.976 (23976/1000) FPS
Color space                              : YUV
Chroma subsampling                       : 4:2:0
Bit depth                                : 8 bits
Scan type                                : Progressive
Bits/(Pixel*Frame)                       : 0.172
Stream size                              : 6.35 GiB (83%)
Writing library                          : x264 core 135 r2345 f0c1c53
Encoding settings                        : cabac=1 / ref=4 / deblock=1:0:0 / analyse=0x3:0x133 / me=umh / subme=7 / psy=1 / psy_rd=1.00:0.00 / mixed_ref=1 / me_range=16 / chroma_me=1 / trellis=1 / 8x8dct=1 / cqm=0 / deadzone=21,11 / fast_pskip=0 / chroma_qp_offset=-2 / threads=12 / lookahead_threads=2 / sliced_threads=0 / nr=0 / decimate=1 / interlaced=0 / bluray_compat=0 / constrained_intra=0 / bframes=3 / b_pyramid=2 / b_adapt=2 / b_bias=0 / direct=3 / weightb=1 / open_gop=0 / weightp=2 / keyint=250 / keyint_min=23 / scenecut=40 / intra_refresh=0 / rc_lookahead=50 / rc=2pass / mbtree=1 / bitrate=8573 / ratetol=1.0 / qcomp=0.60 / qpmin=0 / qpmax=69 / qpstep=4 / cplxblur=20.0 / qblur=0.5 / ip_ratio=1.40 / aq=1:1.00
Language                                 : English
Default                                  : Yes
Forced                                   : No

Audio
ID                                       : 2
Format                                   : DTS
Format/Info                              : Digital Theater Systems
Mode                                     : 16
Format settings, Endianness              : Big
Codec ID                                 : A_DTS
Duration                                 : 1 h 48 min
Bit rate mode                            : Constant
Bit rate                                 : 1 509 kb/s
Channel(s)                               : 6 channels
Channel positions                        : Front: L C R, Side: L R, LFE
Sampling rate                            : 48.0 kHz
Frame rate                               : 93.750 FPS (512 spf)
Bit depth                                : 24 bits
Compression mode                         : Lossy
Stream size                              : 1.14 GiB (15%)
Language                                 : English
Default                                  : Yes
Forced                                   : No

Menu
00:00:00.000                             : en:00:00:00.000
00:09:09.299                             : en:00:09:09.299
00:18:05.209                             : en:00:18:05.209
00:27:12.297                             : en:00:27:12.297
00:37:16.901                             : en:00:37:16.901
00:48:28.531                             : en:00:48:28.531
00:55:28.992                             : en:00:55:28.992
01:05:42.522                             : en:01:05:42.522
01:17:13.838                             : en:01:17:13.838
01:25:06.018                             : en:01:25:06.018
01:35:15.919                             : en:01:35:15.919
01:43:33.416                             : en:01:43:33.416
Category:Movies > 1080P Bluray
Lang:English  English
Total Size:7.65 GB
Info Hash:1d144068991423a839ce8e3c3695620d9275cefa
Added By:Agent47
Date Added:12-10-2017 14:25:52
Downloads:40

Ratings:Not Yet Rated (Log in to rate it)


Tracker:
http://tracker.trackerfix.com:80/announce


File List: 


Comments

No comments still posted

Top
Copyright 2018 DownloadHD -|- Page Generated In 0.579472 secs.
-|- RSS Feed -|- Feed Info
Fórmula 1 y motociclismo | MP3 Dancer | Fate/kaleid liner Prisma☆Illya