Login
Username:
Password:
[Signup]
[Recover Account]


Browse Torrents

Poll


You must be logged in to view polls



Latest Torrents
Madras Cafe (2013)...
- [Size: 1.69 GB]

Crazy Frog - The B...
- [Size: 111.67 MB]

Beyond.The.Sky.201...
- [Size: 16.97 GB]

The.Happytime.Murd...
- [Size: 4.45 GB]

The.Ice.Harvest.20...
- [Size: 6.56 GB]


Torrent Details For "Sliver.1993.1080p.BluRay.x264-GECKOS"

Sliver.1993.1080p.BluRay.x264-GECKOS

Download this torrent | Magnet Download
Health:
Seeds: 0
Leechers: 27
Completed:
Last Checked: 12-10-2017 14:25:23
External Torrent
Update Stats



Images Host

Poster
No poster


iMDB
Imdb Picture Title: Sliver
Year: 1993
Runtime: 107 minutes
Votes: 24482
Rating: 4.9/10
Language: English
Country: USA
All Genres: Drama, Thriller
Plot Outline: A woman moves into an exclusive New York City apartment building, which she soon discovers houses tenants with all manner of shocking secrets.
Tagline: You like to watch... don't you
Director: Phillip Noyce
Writing By: Ira Levin,Joe Eszterhas,
Produced By: Joe Eszterhas,Robert Evans,Hawk Koch,William J. MacDonald,Laura Viederman,
Music: Howard Shore
Cast:
Sharon Stone as Carly Norris
William Baldwin as Zeke Hawkins
Tom Berenger as Jack Landsford
Polly Walker as Vida Warren
Colleen Camp as Judy Marks
Amanda Foreman as Samantha Moore
Martin Landau as Alex Parsons
CCH Pounder as Lt. Victoria Hendrix
Nina Foch as Evelyn McEvoy
Keene Curtis as Gus Hale
Trailers:
Sliver


Watch-Free-HD     Download

Details
Name:Sliver.1993.1080p.BluRay.x264-GECKOS
Description:
MediaInfo

Video
ID                                       : 1
Format                                   : AVC
Format/Info                              : Advanced Video Codec
Format profile                           : [email protected]
Format settings, CABAC                   : Yes
Format settings, ReFrames                : 4 frames
Codec ID                                 : V_MPEG4/ISO/AVC
Duration                                 : 1 h 46 min
Bit rate                                 : 8 773 kb/s
Width                                    : 1 920 pixels
Height                                   : 920 pixels
Display aspect ratio                     : 2.087
Frame rate mode                          : Constant
Frame rate                               : 23.976 FPS
Color space                              : YUV
Chroma subsampling                       : 4:2:0
Bit depth                                : 8 bits
Scan type                                : Progressive
Bits/(Pixel*Frame)                       : 0.207
Stream size                              : 6.37 GiB (83%)
Title                                    : X264
Writing library                          : x264 core 133 r2334 a3ac64b
Encoding settings                        : cabac=1 / ref=4 / deblock=1:0:0 / analyse=0x3:0x133 / me=umh / subme=7 / psy=1 / psy_rd=1.00:0.00 / mixed_ref=1 / me_range=16 / chroma_me=1 / trellis=1 / 8x8dct=1 / cqm=0 / deadzone=21,11 / fast_pskip=0 / chroma_qp_offset=-2 / threads=36 / lookahead_threads=6 / sliced_threads=0 / nr=0 / decimate=1 / interlaced=0 / bluray_compat=0 / constrained_intra=0 / bframes=3 / b_pyramid=2 / b_adapt=1 / b_bias=0 / direct=1 / weightb=1 / open_gop=0 / weightp=2 / keyint=250 / keyint_min=23 / scenecut=40 / intra_refresh=0 / rc_lookahead=40 / rc=2pass / mbtree=1 / bitrate=8773 / ratetol=1.0 / qcomp=0.60 / qpmin=0 / qpmax=69 / qpstep=4 / cplxblur=20.0 / qblur=0.5 / ip_ratio=1.40 / aq=1:1.00
Language                                 : English
Default                                  : Yes
Forced                                   : No

Audio
ID                                       : 2
Format                                   : DTS
Format/Info                              : Digital Theater Systems
Mode                                     : 16
Format settings, Endianness              : Big
Codec ID                                 : A_DTS
Duration                                 : 1 h 46 min
Bit rate mode                            : Constant
Bit rate                                 : 1 509 kb/s
Channel(s)                               : 2 channels
Channel positions                        : Front: L R
Sampling rate                            : 48.0 kHz
Frame rate                               : 93.750 FPS (512 spf)
Bit depth                                : 24 bits
Compression mode                         : Lossy
Stream size                              : 1.12 GiB (15%)
Title                                    : DTS
Language                                 : English
Default                                  : Yes
Forced                                   : No

Menu
00:00:00.000                             : en:00:00:00.000
00:04:12.878                             : en:00:04:12.878
00:09:54.803                             : en:00:09:54.803
00:19:07.730                             : en:00:19:07.730
00:30:37.544                             : en:00:30:37.544
00:38:24.135                             : en:00:38:24.135
00:50:17.473                             : en:00:50:17.473
00:57:37.954                             : en:00:57:37.954
01:08:27.729                             : en:01:08:27.729
01:12:09.242                             : en:01:12:09.242
01:14:17.286                             : en:01:14:17.286
01:26:37.109                             : en:01:26:37.109
01:32:50.565                             : en:01:32:50.565

Category:Movies > 1080P Bluray
Lang:English  English
Total Size:7.65 GB
Info Hash:ab3e95aaca1d6893f770cea50746da48d3024cc1
Added By:Agent47
Date Added:12-10-2017 14:25:23
Downloads:45

Ratings:Not Yet Rated (Log in to rate it)


Tracker:
http://tracker.trackerfix.com:80/announce


File List: 


Comments

No comments still posted

Top
Copyright 2018 DownloadHD -|- Page Generated In 0.449278 secs.
-|- RSS Feed -|- Feed Info
🎅Virtual Santa Clause DVD Digital Decorations Christmas For TV or Projector 🎅 | GraphicRiver Pixelum PS Action | PrinterShare cracked apk free