Login
Username:
Password:
[Signup]
[Recover Account]


Browse Torrents

Poll


You must be logged in to view polls



Latest Torrents
Villain (2018) Ben...
- [Size: 558.96 MB]

Villain (2018) Ben...
- [Size: 1.49 GB]

Mirzapur (2018) Se...
- [Size: 3.39 GB]

The.Daily.Show.201...
- [Size: 311.67 MB]

How.to.Get.Away.wi...
- [Size: 1.17 GB]


Torrent Details For "Simon.Killer.2012.LIMITED.1080p.BluRay.x264-GECKOS"

Simon.Killer.2012.LIMITED.1080p.BluRay.x264-GECKOS

Download this torrent | Magnet Download
Health:
Seeds: 0
Leechers: 41
Completed:
Last Checked: 12-10-2017 14:24:57
External Torrent
Update Stats



Images Host

Poster
No poster


iMDB
Imdb Picture Title: Simon Killer
Year: 2012
Runtime: 101 minutes
Votes: 3400
Rating: 6.3/10
Language: English, French
Country: USA, France
All Genres: Drama, Thriller
Plot Outline: A recent college graduate flees to Paris after a break-up, where his involvement with a prostitute begins to reveal a potentially dark recent past.
Director: Antonio Campos
Writing By: Antonio Campos,Antonio Campos,Brady Corbet,Mati Diop,
Produced By: Sean Durkin,Marie-Louise Khondji,Florence Lobet,Josh Mond,Alexander Norton,Matt Palmieri,Melody C. Roscher,
Music: Danny Bensi Saunder Jurriaans
Cast:
Brady Corbet as Simon
Nicolas Ronchi as Carlo
Constance Rousseau as Marianne
Lila Salet as Sophie
Etienne Rotha Moeng as Cambodian Man
Yannis Calonnec as Street Hustler
Johan Jacques-Andre Coquin as Brothel Runner
Mati Diop as Victoria / Noura
Shaina as Madame
Oksana as Hostess Bar Worker
Trailers:
Theatrical Version


Watch-Free-HD     Download

Details
Name:Simon.Killer.2012.LIMITED.1080p.BluRay.x264-GECKOS
Description:
MediaInfo

Video
ID                                       : 1
Format                                   : AVC
Format/Info                              : Advanced Video Codec
Format profile                           : [email protected]
Format settings, CABAC                   : Yes
Format settings, ReFrames                : 5 frames
Codec ID                                 : V_MPEG4/ISO/AVC
Duration                                 : 1 h 45 min
Bit rate                                 : 8 844 kb/s
Width                                    : 1 920 pixels
Height                                   : 800 pixels
Display aspect ratio                     : 2.40:1
Frame rate mode                          : Constant
Frame rate                               : 23.976 (24000/1001) FPS
Original frame rate                      : 23.976 (23976/1000) FPS
Color space                              : YUV
Chroma subsampling                       : 4:2:0
Bit depth                                : 8 bits
Scan type                                : Progressive
Bits/(Pixel*Frame)                       : 0.240
Stream size                              : 6.38 GiB (83%)
Writing library                          : x264 core 135 r2345 f0c1c53
Encoding settings                        : cabac=1 / ref=5 / deblock=1:0:0 / analyse=0x3:0x133 / me=umh / subme=7 / psy=1 / psy_rd=1.00:0.00 / mixed_ref=1 / me_range=16 / chroma_me=1 / trellis=1 / 8x8dct=1 / cqm=0 / deadzone=21,11 / fast_pskip=0 / chroma_qp_offset=-2 / threads=12 / lookahead_threads=2 / sliced_threads=0 / nr=0 / decimate=1 / interlaced=0 / bluray_compat=0 / constrained_intra=0 / bframes=3 / b_pyramid=2 / b_adapt=2 / b_bias=0 / direct=3 / weightb=1 / open_gop=0 / weightp=2 / keyint=250 / keyint_min=23 / scenecut=40 / intra_refresh=0 / rc_lookahead=50 / rc=2pass / mbtree=1 / bitrate=8844 / ratetol=1.0 / qcomp=0.60 / qpmin=0 / qpmax=69 / qpstep=4 / cplxblur=20.0 / qblur=0.5 / ip_ratio=1.40 / aq=1:1.00
Language                                 : English
Default                                  : Yes
Forced                                   : No

Audio
ID                                       : 2
Format                                   : DTS
Format/Info                              : Digital Theater Systems
Mode                                     : 16
Format settings, Endianness              : Big
Codec ID                                 : A_DTS
Duration                                 : 1 h 45 min
Bit rate mode                            : Constant
Bit rate                                 : 1 509 kb/s
Channel(s)                               : 6 channels
Channel positions                        : Front: L C R, Side: L R, LFE
Sampling rate                            : 48.0 kHz
Frame rate                               : 93.750 FPS (512 spf)
Bit depth                                : 24 bits
Compression mode                         : Lossy
Stream size                              : 1.11 GiB (15%)
Language                                 : English
Default                                  : Yes
Forced                                   : No

Text
ID                                       : 3
Format                                   : UTF-8
Codec ID                                 : S_TEXT/UTF8
Codec ID/Info                            : UTF-8 Plain Text
Language                                 : English
Default                                  : Yes
Forced                                   : No

Menu
00:00:00.000                             : en:00:00:00.000
00:09:18.475                             : en:00:09:18.475
00:15:19.836                             : en:00:15:19.836
00:27:48.500                             : en:00:27:48.500
00:30:44.217                             : en:00:30:44.217
00:37:24.576                             : en:00:37:24.576
00:43:51.754                             : en:00:43:51.754
00:55:24.947                             : en:00:55:24.947
01:07:47.730                             : en:01:07:47.730
01:16:26.624                             : en:01:16:26.624
01:30:39.476                             : en:01:30:39.476

Category:Movies > 1080P Bluray
Lang:English  English
Total Size:7.65 GB
Info Hash:4feb2d4f5c4401a665923285db39d08eca52910a
Added By:Agent47
Date Added:12-10-2017 14:24:57
Downloads:33

Ratings:Not Yet Rated (Log in to rate it)


Tracker:
http://tracker.trackerfix.com:80/announce


File List: 


Comments

No comments still posted

Top
Copyright 2018 DownloadHD -|- Page Generated In 0.034689 secs.
-|- RSS Feed -|- Feed Info