Login
Username:
Password:
[Signup]
[Recover Account]


Browse Torrents

Poll


You must be logged in to view polls



Latest Torrents
18+ DAD FRIEND (20...
- [Size: 579.60 MB]

Rita Ora - Phoenix...
- [Size: 129.09 MB]

Batti Gul Meter Ch...
- [Size: 1.54 GB]

James.Corden.2018....
- [Size: 627.02 MB]

Stephen.Colbert.20...
- [Size: 649.06 MB]


Torrent Details For "Short.Term.12.2013.LIMITED.1080p.BluRay.x264-GECKOS"

Short.Term.12.2013.LIMITED.1080p.BluRay.x264-GECKOS

Download this torrent | Magnet Download
Health:
Seeds: 0
Leechers: 50
Completed:
Last Checked: 12-10-2017 14:24:30
External Torrent
Update Stats



Images Host

Poster
No poster


iMDB
Imdb Picture Title: Short Term 12
Year: 2013
Runtime: 96 minutes
Votes: 64583
Rating: 8.0/10
Language: English
Country: USA
All Genres: Drama
Plot Outline: A 20-something supervising staff member of a residential treatment facility navigates the troubled waters of that world alongside her co-worker and longtime boyfriend.
Tagline: Tough and tender, warm and true.
Director: Destin Daniel Cretton
Writing By: Destin Daniel Cretton,
Produced By: Joshua Astrachan,Asher Goldstein,Frederick W. Green,M. Elizabeth Hughes,Amanda Johnson-Zetterström,David Kaplan,Nathan Kelly,Ron Najor,Maren Olson,Douglas R. Stone,
Music: Joel P. West
Cast:
Brie Larson as Grace
John Gallagher Jr. as Mason
Stephanie Beatriz as Jessica
Rami Malek as Nate
Alex Calloway as Sammy
Kevin Balmore as Luis
Lydia Du Veaux as Kendra
Lakeith Stanfield as Marcus
Frantz Turner as Jack
Kaitlyn Dever as Jayden
Trailers:
Theatrical Trailer


Watch-Free-HD     Download

Details
Name:Short.Term.12.2013.LIMITED.1080p.BluRay.x264-GECKOS
Description:
MediaInfo

Video
ID                                       : 1
Format                                   : AVC
Format/Info                              : Advanced Video Codec
Format profile                           : [email protected]
Format settings, CABAC                   : Yes
Format settings, ReFrames                : 4 frames
Codec ID                                 : V_MPEG4/ISO/AVC
Duration                                 : 1 h 36 min
Bit rate                                 : 8 183 kb/s
Width                                    : 1 920 pixels
Height                                   : 1 040 pixels
Display aspect ratio                     : 1.85:1
Frame rate mode                          : Constant
Frame rate                               : 23.976 FPS
Color space                              : YUV
Chroma subsampling                       : 4:2:0
Bit depth                                : 8 bits
Scan type                                : Progressive
Bits/(Pixel*Frame)                       : 0.171
Stream size                              : 5.40 GiB (82%)
Title                                    : X264
Writing library                          : x264 core 140 r2377 1ca7bb9
Encoding settings                        : cabac=1 / ref=4 / deblock=1:0:0 / analyse=0x3:0x133 / me=umh / subme=7 / psy=1 / psy_rd=1.00:0.00 / mixed_ref=1 / me_range=16 / chroma_me=1 / trellis=1 / 8x8dct=1 / cqm=0 / deadzone=21,11 / fast_pskip=0 / chroma_qp_offset=-2 / threads=36 / lookahead_threads=6 / sliced_threads=0 / nr=0 / decimate=1 / interlaced=0 / bluray_compat=0 / constrained_intra=0 / bframes=3 / b_pyramid=2 / b_adapt=1 / b_bias=0 / direct=1 / weightb=1 / open_gop=0 / weightp=2 / keyint=250 / keyint_min=23 / scenecut=40 / intra_refresh=0 / rc_lookahead=40 / rc=2pass / mbtree=1 / bitrate=8183 / ratetol=1.0 / qcomp=0.60 / qpmin=0 / qpmax=69 / qpstep=4 / cplxblur=20.0 / qblur=0.5 / ip_ratio=1.40 / aq=1:1.00
Language                                 : English
Default                                  : Yes
Forced                                   : No

Audio
ID                                       : 2
Format                                   : DTS
Format/Info                              : Digital Theater Systems
Mode                                     : 16
Format settings, Endianness              : Big
Codec ID                                 : A_DTS
Duration                                 : 1 h 36 min
Bit rate mode                            : Constant
Bit rate                                 : 1 509 kb/s
Channel(s)                               : 6 channels
Channel positions                        : Front: L C R, Side: L R, LFE
Sampling rate                            : 48.0 kHz
Frame rate                               : 93.750 FPS (512 spf)
Bit depth                                : 24 bits
Compression mode                         : Lossy
Stream size                              : 1.02 GiB (16%)
Title                                    : DTS
Language                                 : English
Default                                  : Yes
Forced                                   : No

Text
ID                                       : 3
Format                                   : UTF-8
Codec ID                                 : S_TEXT/UTF8
Codec ID/Info                            : UTF-8 Plain Text
Title                                    : English
Language                                 : English
Default                                  : No
Forced                                   : No
Category:Movies > 1080P Bluray
Lang:English  English
Total Size:6.56 GB
Info Hash:98bd1602dd12ce76b511fcee0d08df6bbbfd98ba
Added By:Agent47
Date Added:12-10-2017 14:24:30
Downloads:39

Ratings:Not Yet Rated (Log in to rate it)


Tracker:
http://tracker.trackerfix.com:80/announce


File List: 


Comments

No comments still posted

Top
Copyright 2018 DownloadHD -|- Page Generated In 0.302092 secs.
-|- RSS Feed -|- Feed Info
One Piece 531 | The Bird - 567 Words | Chaos Dragon: Sekiryuu Senyaku