Login
Username:
Password:
[Signup]
[Recover Account]


Browse Torrents

Poll


You must be logged in to view polls



Latest Torrents
Puzzle.2018.HDRip....
- [Size: 1.43 GB]

5 Weddings (2018) ...
- [Size: 698.51 MB]

Crazy.Rich.Asians....
- [Size: 3.20 GB]

BigBoss.S12.Ep41.1...
- [Size: 3.50 GB]

Puzzle.2018.HDRip....
- [Size: 1.43 GB]


Torrent Details For "Queen.Of.The.Damned.2002.1080p.BluRay.x264-GECKOS"

Queen.Of.The.Damned.2002.1080p.BluRay.x264-GECKOS

Download this torrent | Magnet Download
Health:
Seeds: 0
Leechers: 52
Completed:
Last Checked: 12-10-2017 14:24:07
External Torrent
Update Stats



Images Host

Poster
No poster


iMDB
Imdb Picture Title: Queen of the Damned
Year: 2002
Runtime: 101 minutes
Votes: 46425
Rating: 5.3/10
Language: English
Country: USA, Australia
All Genres: Drama, Fantasy, Horror
Plot Outline: The vampire Lestat becomes a rock star whose music wakes up the queen of all vampires.
Tagline: The Mother Of All Vampires
Director: Michael Rymer
Writing By: Anne Rice,Scott Abbott,Michael Petroni,
Produced By: Su Armstrong,Bruce Berman,Channing Dungey,Bill Gerber,Andrew Mason,Jorge Saralegui,
Music: Jonathan Davis Richard Gibbs
Cast:
Aaliyah as Queen Akasha
Stuart Townsend as Lestat
Marguerite Moreau as Jesse
Vincent Perez as Marius
Paul McGann as David Talbot
Lena Olin as Maharet
Christian Manon as Mael
Claudia Black as Pandora
Bruce Spence as Khayman
Matthew Newton as Armand
Trailers:
Queen Of The Damned


Watch-Free-HD     Download

Details
Name:Queen.Of.The.Damned.2002.1080p.BluRay.x264-GECKOS
Description:
MediaInfo

Video
ID                                       : 1
Format                                   : AVC
Format/Info                              : Advanced Video Codec
Format profile                           : [email protected]
Format settings, CABAC                   : Yes
Format settings, ReFrames                : 5 frames
Codec ID                                 : V_MPEG4/ISO/AVC
Duration                                 : 1 h 41 min
Bit rate                                 : 9 281 kb/s
Width                                    : 1 920 pixels
Height                                   : 800 pixels
Display aspect ratio                     : 2.40:1
Frame rate mode                          : Constant
Frame rate                               : 23.976 FPS
Color space                              : YUV
Chroma subsampling                       : 4:2:0
Bit depth                                : 8 bits
Scan type                                : Progressive
Bits/(Pixel*Frame)                       : 0.252
Stream size                              : 6.43 GiB (84%)
Writing library                          : x264 core 125 r2208 d9d2288
Encoding settings                        : cabac=1 / ref=5 / deblock=1:0:0 / analyse=0x3:0x133 / me=umh / subme=7 / psy=1 / psy_rd=1.00:0.00 / mixed_ref=1 / me_range=16 / chroma_me=1 / trellis=1 / 8x8dct=1 / cqm=0 / deadzone=21,11 / fast_pskip=0 / chroma_qp_offset=-2 / threads=12 / lookahead_threads=2 / sliced_threads=0 / nr=0 / decimate=1 / interlaced=0 / bluray_compat=0 / constrained_intra=0 / bframes=3 / b_pyramid=2 / b_adapt=1 / b_bias=0 / direct=1 / weightb=1 / open_gop=0 / weightp=2 / keyint=250 / keyint_min=23 / scenecut=40 / intra_refresh=0 / rc_lookahead=40 / rc=2pass / mbtree=1 / bitrate=9281 / ratetol=1.0 / qcomp=0.60 / qpmin=0 / qpmax=69 / qpstep=4 / cplxblur=20.0 / qblur=0.5 / ip_ratio=1.40 / aq=1:1.00
Language                                 : English
Default                                  : Yes
Forced                                   : No

Audio
ID                                       : 2
Format                                   : DTS
Format/Info                              : Digital Theater Systems
Mode                                     : 16
Format settings, Endianness              : Big
Codec ID                                 : A_DTS
Duration                                 : 1 h 41 min
Bit rate mode                            : Constant
Bit rate                                 : 1 509 kb/s
Channel(s)                               : 6 channels
Channel positions                        : Front: L C R, Side: L R, LFE
Sampling rate                            : 48.0 kHz
Frame rate                               : 93.750 FPS (512 spf)
Bit depth                                : 24 bits
Compression mode                         : Lossy
Stream size                              : 1.07 GiB (14%)
Language                                 : English
Default                                  : Yes
Forced                                   : No

Text
ID                                       : 3
Format                                   : UTF-8
Codec ID                                 : S_TEXT/UTF8
Codec ID/Info                            : UTF-8 Plain Text
Language                                 : English
Default                                  : No
Forced                                   : No

Menu
00:00:00.000                             : en:00:00:00.000
00:03:44.599                             : en:00:03:44.599
00:06:48.158                             : en:00:06:48.158
00:09:28.276                             : en:00:09:28.276
00:12:29.165                             : en:00:12:29.165
00:16:36.287                             : en:00:16:36.287
00:20:09.583                             : en:00:20:09.583
00:24:34.056                             : en:00:24:34.056
00:29:09.039                             : en:00:29:09.039
00:34:09.089                             : en:00:34:09.089
00:37:30.165                             : en:00:37:30.165
00:40:49.197                             : en:00:40:49.197
00:45:11.792                             : en:00:45:11.792
00:51:03.269                             : en:00:51:03.269
00:55:10.474                             : en:00:55:10.474
00:59:45.290                             : en:00:59:45.290
01:04:18.646                             : en:01:04:18.646
01:06:34.115                             : en:01:06:34.115
01:09:09.312                             : en:01:09:09.312
01:12:02.026                             : en:01:12:02.026
01:16:46.227                             : en:01:16:46.227
01:19:18.003                             : en:01:19:18.003
01:21:48.278                             : en:01:21:48.278
01:26:18.757                             : en:01:26:18.757
01:30:07.068                             : en:01:30:07.068
01:32:45.143                             : en:01:32:45.143
01:37:04.485                             : en:01:37:04.485

Category:Movies > 1080P Bluray
Lang:English  English
Total Size:7.65 GB
Info Hash:1a0f3529f3fe5d79cead50fa01fee6acbcbed76f
Added By:Agent47
Date Added:12-10-2017 14:24:07
Downloads:41

Ratings:Not Yet Rated (Log in to rate it)


Tracker:
http://tracker.trackerfix.com:80/announce


File List: 


Comments

No comments still posted

Top
Copyright 2018 DownloadHD -|- Page Generated In 0.057418 secs.
-|- RSS Feed -|- Feed Info