Login
Username:
Password:
[Signup]
[Recover Account]


Browse Torrents

Poll


You must be logged in to view polls



Latest Torrents
Mom.S06E11.HDTV.x2...
- [Size: 142.47 MB]

Mom.S06E11.720p.HD...
- [Size: 496.39 MB]

Mom.S06E11.720p.HD...
- [Size: 529.14 MB]

Supernatural.S14E0...
- [Size: 149.74 MB]

The.Apprentice.UK....
- [Size: 806.65 MB]


Torrent Details For "Into.the.Sun.2005.BluRay.1080p.x264.AAC.5.1.-.Download"

Into.the.Sun.2005.BluRay.1080p.x264.AAC.5.1.-.Download

Download this torrent | Magnet Download
Health:
Seeds: 0
Leechers: 2
Completed: 22 
Last Checked: 04-08-2018 11:56:18
External Torrent
Update Stats



Images Host

Poster


iMDB
Imdb Picture Title: Into the Sun
Year: 2005
Runtime: 97 minutes
Votes: 6228
Rating: 4.5/10
Language: English, Japanese
Country: USA
All Genres: Action, Adventure, Thriller
Plot Outline: When a government official is killed, an American operative with experience in the Yakuza culture is brought in to investigate.
Tagline: Only one man can stop the Yakuza.
Director: mink
Writing By: Steven Seagal,Joe Halpin,Steven Seagal,Joe Halpin,Trevor Miller,
Produced By: Erik Anderson,Jim Begg,Binh Dang,George Edde,Cellin Gluck,Phillip B. Goldfine,Frank Hildebrand,Elie Samaha,Steven Seagal,Tracee Stanley,Kevan Van Thompson,Kazutoshi Wadakura,Mac Yasuda,
Music: Stanley Clarke
Cast:
Steven Seagal as Travis Hunter
Matthew Davis as FBI Agent Sean Mack
Takao Ohsawa as Kuroda
Eddie George as Jones
William Atherton as CIA Agent Block
Juliette Marquis as Jewel
Ken Lo as Chen
Kosuke Toyohara as Fudomyo-o
Akira Terao as Matsuda
Eve Masatoh as Kojima
Trailers:
Into the Sun


Watch-Free-HD     Download

Details
Name:Into.the.Sun.2005.BluRay.1080p.x264.AAC.5.1.-.Download
Description:
Format                      : Matroska
Format version              : Version 4 / Version 2
File size                   : 2.25 GiB
Duration                    : 1 h 36 min
Overall bit rate            : 3 320 kb/s
Movie name                  : Into the Sun

Video
ID                          : 1
Format                      : AVC
Format/Info                 : Advanced Video Codec
Format profile              : [email protected]
Format settings, CABAC      : Yes
Format settings, RefFrames  : 5 frames
Codec ID                    : V_MPEG4/ISO/AVC
Duration                    : 1 h 36 min
Bit rate                    : 3 000 kb/s
Width                       : 1 920 pixels
Height                      : 1 080 pixels
Display aspect ratio        : 16:9
Frame rate mode             : Constant
Frame rate                  : 23.976 (24000/1001) FPS

Audio
ID                          : 2
Format                      : AAC
Format/Info                 : Advanced Audio Codec
Format profile              : LC
Codec ID                    : A_AAC
Duration                    : 1 h 36 min
Bit rate                    : 320 kb/s
Channel(s)                  : 6 channels
Channel positions           : Front: L C R, Side: L R, LFE
Sampling rate               : 48.0 kHz
Frame rate                  : 46.875 FPS (1024 SPF)
Compression mode            : Lossy
Delay relative to video     : -21 ms
Stream size                 : 222 MiB (10%)
Title                       : Surround
Language                    : English


Text
ID                          : 3
Format                      : PGS
Muxing mode                 : zlib
Codec ID                    : S_HDMV/PGS
Codec ID/Info               : Picture based subtitle format used on BDs/HD-DVDs
Duration                    : 1 h 36 min
Bit rate                    : 24.8 kb/s
Count of elements           : 1988
Stream size                 : 17.1 MiB (1%)
Language                    : English
Default                     : No
Forced                      : No

Menu
00:00:00.000                : :00:00:00.000
00:06:48.074                : :00:06:48.033
00:12:23.034                : :00:12:23.034
00:18:39.076                : :00:18:39.076
00:24:30.552                : :00:24:30.469
00:30:31.538                : :00:30:31.455
00:37:39.340                : :00:37:39.257
00:43:56.717                : :00:43:56.634
00:51:12.111                : :00:51:12.069
00:56:06.446                : :00:56:06.363
01:01:47.704                : :01:01:47.704
01:09:06.225                : :01:09:06.142
01:15:15.511                : :01:15:15.511
01:21:50.614                : :01:21:50.531
01:26:35.190                : :01:26:35.190

 
 
 
 
Category:Movies > 1080P Bluray
Lang:English  English
Total Size:2.25 GB
Info Hash:1364279cb2a05eb03d0a5a5b7ab0d33946450f88
Added By:Download
Date Added:11-10-2017 15:10:08
Downloads:86

Ratings:Not Yet Rated (Log in to rate it)


Tracker:
http://ipv4.tracker.harry.lu/announce

This Torrent also has backup trackers
URLSeedersLeechersCompleted
http://ipv4.tracker.harry.lu/announce000
http://ipv4.tracker.harry.lu:80/announce000
http://opentracker-milanesi.rhcloud.com/announce000
http://t.nyaatracker.com/announce100
http://tracker.devil-torrents.pl:80/announce000
http://tracker.devil-torrents.pl/announce000
http://open.kickasstracker.com/announce000
http://opentracker-milanesi.rhcloud.com:80/announce000
http://open.kickasstracker.com:443/announce000
http://opentracker-milanesi.rhcloud.com:443/announce000
http://t.nyaatracker.com:80/announce100


File List: 


Comments

No comments still posted

Top
Copyright 2018 DownloadHD -|- Page Generated In 0.780103 secs.
-|- RSS Feed -|- Feed Info
14 Comment | 10-100x A4 Sammelhüllen Prospekthüllen Kartenhüllen 120my geteilt auf A5, A6 A8 | Body Actually