Login
Username:
Password:
[Signup]
[Recover Account]


Browse Torrents

Poll


You must be logged in to view polls



Latest Torrents
Villain (2018) Ben...
- [Size: 558.96 MB]

Villain (2018) Ben...
- [Size: 1.49 GB]

Mirzapur (2018) Se...
- [Size: 3.39 GB]

The.Daily.Show.201...
- [Size: 311.67 MB]

How.to.Get.Away.wi...
- [Size: 1.17 GB]


Torrent Details For "Baahubali.2015.[Hindi Video Songs].Untouched BD50. -.Download"

Baahubali.2015.[Hindi Video Songs].Untouched BD50. -.Download

Download this torrent | Magnet Download
Health:
Seeds: 0
Leechers: 7
Completed: 55 
Last Checked: 01-11-2018 04:18:30
External Torrent
Update Stats



Images Host

Poster


iMDB
Imdb Picture Original Title: Bahubali: The Beginning
Title: Baahubali: The Beginning
Year: 2015
Runtime: 159 minutes
Votes: 72345
Rating: 8.3/10
Language: Telugu
Country: India
All Genres: Action, Adventure, Drama, Fantasy, War
Plot Outline: In ancient India, an adventurous and daring man becomes involved in a decades old feud between two warring people.
Director: S.S. Rajamouli
Writing By: Vijayendra Prasad,S.S. Rajamouli,C.H. Vijay Kumar,Ajay Kumar,Madhan Karky,Manoj Muntashir,
Produced By: Prasad Devineni,Valli Keeravaani,K. Raghavendra Rao,Natarajan Ramji,Iliya Sotirov,Shobu Yarlagadda,
Music: Kreem
Plot:

When Sanga and her husband, part of a tribe living around the province of Mahismathi, save a drowning infant, little do they know the background of the infant or what the future holds for him. The kid grows up to as Shivudu, a free-spirit wanting to explore the mountains and in the process learns of his roots and then realizes the whole purpose of his life and ends up confronting the mighty Bhallala Deva!

- Written by PipingHotViews

It's a tale of two cousins in the Kingdom of Mahishmati, India. Balla fights his way with cousin Baahubali for the throne. Young Shivudu grows in the tribes and travels to the distant lands above the waterfalls to fall in love with the beautiful Tamanna, the tribal warrior and helps in her quest to rescue Devasena a prisoner from the claws of King Balla. In this quest he finds out that the legendary King Baahubali is his father and Devasena the prisoner is his mother from the slave commander in chief Katappa of King Balla. Katappa narrates to Shivudu about the legends of his father Baahubali and the epic battle by the brothers Balla and Baahubali against the cruel king who attacks the Mahishmati Kingdom, in this battle Baahubali is crowned as the king by Sivagami as she thinks he is more worthier to the throne. This strengthen Balla's hatred towards his brother king Baahubali.

Baahubali-The Beginning (2015) is essentially about a tribal warrior boy, Shivudu who learns his past and awaits his destiny. The story is set in and around the fictional kingdom of Mahishmati. On the backdrop of a mighty water fall, an old yet regal lady (Sivagami) tries desperately to save a baby from a few attacking soldiers, but dies in the process. A tribal chief and his wife adopt that baby boy as their son. Egged on by curiosity and courage, the boy (Shivudu) makes a daring journey against the wishes of his mother, leaving the valley, towards the waterfall and further north into the nearby mountains. He is simply smitten by a rebel (Avantika) whose cause he willingly he takes up. This is the cause that brings him to Mahishmati Kingdom, and makes him confront his legacy. He saves the trapped and enslaved queen, later revealed to be his true mother (Devasena). He learns about his father, the benevolent and righteous (Amarendra Baahubali), and his ambitious uncle (Bhallaladeva) as told by a loyal warrior slave (Kattappa). And what is the stunning answer Kattappa gives for Shivudu's question as to who killed his father, Amarendra Baahubali?

- Written by Mass_Sonu

In ancient India, an adventurous and daring man becomes involved in a decades old feud between two warring people.


Cast:
Prabhas as Shivudu / Baahubali
Rana Daggubati as Bhallaladeva
Anushka Shetty as Devasena
Tamannaah Bhatia as Avanthika
Sathyaraj as Kattappa
Nassar as Bijjaladeva
Ramya Krishnan as Shivagami
Kichcha Sudeep as Aslaam Khan
Gabriela Bertante as
Tanikella Bharani as Swamiji
Trailers:
Official Trailer


Watch-Free-HD     Download

Details
Name:Baahubali.2015.[Hindi Video Songs].Untouched BD50. -.Download
Description:
[email protected]DownloadHD
Thanks to ISPKMYK

General
Format: BDAV
Format/Info: Blu-ray Video
File size: 44.6 GiB
Duration: 2 h 39 min
Overall bit rate mode: Variable
Overall bit rate: 40.1 Mb/s
Maximum Overall bit rate: 48.0 Mb/s

Video
Format: AVC
Format/Info: Advanced Video Codec
Format profile: [email protected]
Format settings, CABAC: Yes
Format settings, RefFrames: 4 frames
Bit rate: 37.2 Mb/s
Nominal bit rate: 30.0 Mb/s
Width: 1 920 pixels
Height: 1 080 pixels
Stream size: 41.4 GiB (93%)

Audio #1
Format: TrueHD / AC-3
Format profile: TrueHD+Atmos / TrueHD / AC-3
Bit rate: 640 kb/s
Maximum bit rate: 9 030 kb/s
Channel(s): Object Based / 8 channels / 6 channels
Stream size: 730 MiB (2%)

Audio #2
Format: AC-3
Bit rate: 640 kb/s
Channel(s): 6 channels
Stream size: 730 MiB (2%)[/align]
.::Tracklist::.
Kaun Hain Woh
Khoya Hain
Manohari
Panchhi Bole



  
  
Category:Music > Bollywood
Lang:Hindi
Total Size:4.51 GB
Info Hash:a3acd76b7ca293557ae3b4adb305817f20eee568
Added By:Download
Date Added:11-10-2017 09:19:55
Downloads:408

Ratings:Not Yet Rated (Log in to rate it)


Tracker:
http://ipv4.tracker.harry.lu/announce

This Torrent also has backup trackers
URLSeedersLeechersCompleted
http://ipv4.tracker.harry.lu/announce112
http://ipv4.tracker.harry.lu:80/announce112
http://opentracker-milanesi.rhcloud.com/announce000
http://t.nyaatracker.com/announce010
http://tracker.devil-torrents.pl:80/announce000
http://tracker.devil-torrents.pl/announce000
http://open.kickasstracker.com/announce021
http://opentracker-milanesi.rhcloud.com:80/announce000
http://open.kickasstracker.com:443/announce021
http://opentracker-milanesi.rhcloud.com:443/announce000
http://t.nyaatracker.com:80/announce010


File List: 


Comments

No comments still posted

Top
Copyright 2018 DownloadHD -|- Page Generated In 0.740942 secs.
-|- RSS Feed -|- Feed Info